  0
SECTION
  2
HEADER
  9
$ACADVER
  1
AC1021
  9
$ACADMAINTVER
 70
    50
  9
$DWGCODEPAGE
  3
ANSI_1252
  9
$LASTSAVEDBY
  1
Catalina Herrada
  9
$INSBASE
 10
0.0
 20
0.0
 30
0.0
  9
$EXTMIN
 10
611.6736557790418
 20
-351.0202957651732
 30
-0.0000000349181948
  9
$EXTMAX
 10
711.9829738922849
 20
-215.9237242529814
 30
0.0000000814935747
  9
$LIMMIN
 10
0.0
 20
0.0
  9
$LIMMAX
 10
420.0
 20
297.0
  9
$ORTHOMODE
 70
     0
  9
$REGENMODE
 70
     1
  9
$FILLMODE
 70
     1
  9
$QTEXTMODE
 70
     0
  9
$MIRRTEXT
 70
     0
  9
$LTSCALE
 40
1.0
  9
$ATTMODE
 70
     1
  9
$TEXTSIZE
 40
2.5
  9
$TRACEWID
 40
1.0
  9
$TEXTSTYLE
  7
Arial
  9
$CLAYER
  8
0
  9
$CELTYPE
  6
ByLayer
  9
$CECOLOR
 62
   256
  9
$CELTSCALE
 40
1.0
  9
$DISPSILH
 70
     0
  9
$DIMSCALE
 40
1.0
  9
$DIMASZ
 40
3.0
  9
$DIMEXO
 40
7.0
  9
$DIMDLI
 40
3.75
  9
$DIMRND
 40
0.0
  9
$DIMDLE
 40
0.0
  9
$DIMEXE
 40
1.25
  9
$DIMTP
 40
0.0
  9
$DIMTM
 40
0.0
  9
$DIMTXT
 40
3.0
  9
$DIMCEN
 40
0.0
  9
$DIMTSZ
 40
0.0
  9
$DIMTOL
 70
     0
  9
$DIMLIM
 70
     0
  9
$DIMTIH
 70
     1
  9
$DIMTOH
 70
     1
  9
$DIMSE1
 70
     0
  9
$DIMSE2
 70
     0
  9
$DIMTAD
 70
     1
  9
$DIMZIN
 70
     8
  9
$DIMBLK
  1

  9
$DIMASO
 70
     1
  9
$DIMSHO
 70
     1
  9
$DIMPOST
  1

  9
$DIMAPOST
  1

  9
$DIMALT
 70
     0
  9
$DIMALTD
 70
     3
  9
$DIMALTF
 40
0.03937007874016
  9
$DIMLFAC
 40
1.0
  9
$DIMTOFL
 70
     1
  9
$DIMTVP
 40
0.0
  9
$DIMTIX
 70
     0
  9
$DIMSOXD
 70
     0
  9
$DIMSAH
 70
     0
  9
$DIMBLK1
  1

  9
$DIMBLK2
  1

  9
$DIMSTYLE
  2
Radios 1-1
  9
$DIMCLRD
 70
     0
  9
$DIMCLRE
 70
     0
  9
$DIMCLRT
 70
     0
  9
$DIMTFAC
 40
1.0
  9
$DIMGAP
 40
0.625
  9
$DIMJUST
 70
     0
  9
$DIMSD1
 70
     0
  9
$DIMSD2
 70
     0
  9
$DIMTOLJ
 70
     0
  9
$DIMTZIN
 70
     8
  9
$DIMALTZ
 70
     0
  9
$DIMALTTZ
 70
     0
  9
$DIMUPT
 70
     0
  9
$DIMDEC
 70
     2
  9
$DIMTDEC
 70
     2
  9
$DIMALTU
 70
     2
  9
$DIMALTTD
 70
     3
  9
$DIMTXSTY
  7
Arial
  9
$DIMAUNIT
 70
     0
  9
$DIMADEC
 70
     0
  9
$DIMALTRND
 40
0.0
  9
$DIMAZIN
 70
     0
  9
$DIMDSEP
 70
    44
  9
$DIMATFIT
 70
     3
  9
$DIMFRAC
 70
     0
  9
$DIMLDRBLK
  1

  9
$DIMLUNIT
 70
     2
  9
$DIMLWD
 70
    -2
  9
$DIMLWE
 70
    -2
  9
$DIMTMOVE
 70
     0
  9
$DIMFXL
 40
1.25
  9
$DIMFXLON
 70
     0
  9
$DIMJOGANG
 40
1.570796326794896
  9
$DIMTFILL
 70
     0
  9
$DIMTFILLCLR
 70
     0
  9
$DIMARCSYM
 70
     0
  9
$DIMLTYPE
  6

  9
$DIMLTEX1
  6

  9
$DIMLTEX2
  6

  9
$LUNITS
 70
     2
  9
$LUPREC
 70
     4
  9
$SKETCHINC
 40
1.0
  9
$FILLETRAD
 40
1.0
  9
$AUNITS
 70
     0
  9
$AUPREC
 70
     0
  9
$MENU
  1
.
  9
$ELEVATION
 40
0.0
  9
$PELEVATION
 40
0.0
  9
$THICKNESS
 40
0.0
  9
$LIMCHECK
 70
     0
  9
$CHAMFERA
 40
0.75
  9
$CHAMFERB
 40
0.75
  9
$CHAMFERC
 40
0.0
  9
$CHAMFERD
 40
0.0
  9
$SKPOLY
 70
     0
  9
$TDCREATE
 40
2454508.655952685
  9
$TDUCREATE
 40
2454508.780952685
  9
$TDUPDATE
 40
2456345.556963611
  9
$TDUUPDATE
 40
2456345.681963611
  9
$TDINDWG
 40
0.7199754398
  9
$TDUSRTIMER
 40
0.7199696296
  9
$USRTIMER
 70
     1
  9
$ANGBASE
 50
0.0
  9
$ANGDIR
 70
     0
  9
$PDMODE
 70
     0
  9
$PDSIZE
 40
0.0
  9
$PLINEWID
 40
0.0
  9
$SPLFRAME
 70
     0
  9
$SPLINETYPE
 70
     6
  9
$SPLINESEGS
 70
     8
  9
$HANDSEED
  5
28FB
  9
$SURFTAB1
 70
     6
  9
$SURFTAB2
 70
     6
  9
$SURFTYPE
 70
     6
  9
$SURFU
 70
     6
  9
$SURFV
 70
     6
  9
$UCSBASE
  2

  9
$UCSNAME
  2

  9
$UCSORG
 10
0.0
 20
0.0
 30
0.0
  9
$UCSXDIR
 10
1.0
 20
0.0
 30
0.0
  9
$UCSYDIR
 10
0.0
 20
1.0
 30
0.0
  9
$UCSORTHOREF
  2

  9
$UCSORTHOVIEW
 70
     0
  9
$UCSORGTOP
 10
0.0
 20
0.0
 30
0.0
  9
$UCSORGBOTTOM
 10
0.0
 20
0.0
 30
0.0
  9
$UCSORGLEFT
 10
0.0
 20
0.0
 30
0.0
  9
$UCSORGRIGHT
 10
0.0
 20
0.0
 30
0.0
  9
$UCSORGFRONT
 10
0.0
 20
0.0
 30
0.0
  9
$UCSORGBACK
 10
0.0
 20
0.0
 30
0.0
  9
$PUCSBASE
  2

  9
$PUCSNAME
  2

  9
$PUCSORG
 10
0.0
 20
0.0
 30
0.0
  9
$PUCSXDIR
 10
1.0
 20
0.0
 30
0.0
  9
$PUCSYDIR
 10
0.0
 20
1.0
 30
0.0
  9
$PUCSORTHOREF
  2

  9
$PUCSORTHOVIEW
 70
     0
  9
$PUCSORGTOP
 10
0.0
 20
0.0
 30
0.0
  9
$PUCSORGBOTTOM
 10
0.0
 20
0.0
 30
0.0
  9
$PUCSORGLEFT
 10
0.0
 20
0.0
 30
0.0
  9
$PUCSORGRIGHT
 10
0.0
 20
0.0
 30
0.0
  9
$PUCSORGFRONT
 10
0.0
 20
0.0
 30
0.0
  9
$PUCSORGBACK
 10
0.0
 20
0.0
 30
0.0
  9
$USERI1
 70
     0
  9
$USERI2
 70
     0
  9
$USERI3
 70
     0
  9
$USERI4
 70
     0
  9
$USERI5
 70
     0
  9
$USERR1
 40
0.0
  9
$USERR2
 40
0.0
  9
$USERR3
 40
0.0
  9
$USERR4
 40
0.0
  9
$USERR5
 40
0.0
  9
$WORLDVIEW
 70
     1
  9
$SHADEDGE
 70
     3
  9
$SHADEDIF
 70
    70
  9
$TILEMODE
 70
     1
  9
$MAXACTVP
 70
    64
  9
$PINSBASE
 10
0.0
 20
0.0
 30
0.0
  9
$PLIMCHECK
 70
     0
  9
$PEXTMIN
 10
0.0
 20
0.0
 30
0.0
  9
$PEXTMAX
 10
0.0
 20
0.0
 30
0.0
  9
$PLIMMIN
 10
0.0
 20
0.0
  9
$PLIMMAX
 10
12.0
 20
9.0
  9
$UNITMODE
 70
     0
  9
$VISRETAIN
 70
     1
  9
$PLINEGEN
 70
     0
  9
$PSLTSCALE
 70
     1
  9
$TREEDEPTH
 70
  3020
  9
$CMLSTYLE
  2
Standard
  9
$CMLJUST
 70
     0
  9
$CMLSCALE
 40
20.0
  9
$PROXYGRAPHICS
 70
     1
  9
$MEASUREMENT
 70
     1
  9
$CELWEIGHT
370
    -1
  9
$ENDCAPS
280
     0
  9
$JOINSTYLE
280
     0
  9
$LWDISPLAY
290
     0
  9
$INSUNITS
 70
     4
  9
$HYPERLINKBASE
  1

  9
$STYLESHEET
  1

  9
$XEDIT
290
     1
  9
$CEPSNTYPE
380
     0
  9
$PSTYLEMODE
290
     1
  9
$FINGERPRINTGUID
  2
{14C97A6A-3EA1-4EEF-84E7-C31686AB4FE5}
  9
$VERSIONGUID
  2
{B204F226-23FE-4EC5-809B-A7C16D0D2D60}
  9
$EXTNAMES
290
     1
  9
$PSVPSCALE
 40
0.0
  9
$OLESTARTUP
290
     0
  9
$SORTENTS
280
   127
  9
$INDEXCTL
280
     0
  9
$HIDETEXT
280
     1
  9
$XCLIPFRAME
290
     0
  9
$HALOGAP
280
     0
  9
$OBSCOLOR
 70
   257
  9
$OBSLTYPE
280
     0
  9
$INTERSECTIONDISPLAY
280
     0
  9
$INTERSECTIONCOLOR
 70
   257
  9
$DIMASSOC
280
     2
  9
$PROJECTNAME
  1

  9
$CAMERADISPLAY
290
     0
  9
$LENSLENGTH
 40
50.0
  9
$CAMERAHEIGHT
 40
0.0
  9
$STEPSPERSEC
 40
2.0
  9
$STEPSIZE
 40
6.0
  9
$3DDWFPREC
 40
2.0
  9
$PSOLWIDTH
 40
0.25
  9
$PSOLHEIGHT
 40
4.0
  9
$LOFTANG1
 40
1.570796326794896
  9
$LOFTANG2
 40
1.570796326794896
  9
$LOFTMAG1
 40
0.0
  9
$LOFTMAG2
 40
0.0
  9
$LOFTPARAM
 70
     7
  9
$LOFTNORMALS
280
     1
  9
$LATITUDE
 40
37.795
  9
$LONGITUDE
 40
-122.394
  9
$NORTHDIRECTION
 40
0.0
  9
$TIMEZONE
 70
 -8000
  9
$LIGHTGLYPHDISPLAY
280
     1
  9
$TILEMODELIGHTSYNCH
280
     1
  9
$CMATERIAL
347
27DB
  9
$SOLIDHIST
280
     0
  9
$SHOWHIST
280
     1
  9
$DWFFRAME
280
     2
  9
$DGNFRAME
280
     0
  9
$REALWORLDSCALE
290
     1
  9
$INTERFERECOLOR
 62
     1
  9
$INTERFEREOBJVS
345
27FD
  9
$INTERFEREVPVS
346
27FA
  9
$CSHADOW
280
     0
  9
$SHADOWPLANELOCATION
 40
0.0
  0
ENDSEC
  0
SECTION
  2
CLASSES
  0
CLASS
  1
ACDBDICTIONARYWDFLT
  2
AcDbDictionaryWithDefault
  3
ObjectDBX Classes
 90
        0
 91
        1
280
     0
281
     0
  0
CLASS
  1
DICTIONARYVAR
  2
AcDbDictionaryVar
  3
ObjectDBX Classes
 90
        0
 91
        9
280
     0
281
     0
  0
CLASS
  1
TABLESTYLE
  2
AcDbTableStyle
  3
ObjectDBX Classes
 90
     4095
 91
        1
280
     0
281
     0
  0
CLASS
  1
EXACXREFPANELOBJECT
  2
ExAcXREFPanelObject
  3
EXAC_ESW
 90
        0
 91
        0
280
     0
281
     0
  0
CLASS
  1
SORTENTSTABLE
  2
AcDbSortentsTable
  3
ObjectDBX Classes
 90
        0
 91
        2
280
     0
281
     0
  0
CLASS
  1
DIMASSOC
  2
AcDbDimAssoc
  3
"AcDbDimAssoc|Product Desc:     AcDim ARX App For Dimension|Company:          Autodesk, Inc.|WEB Address:      www.autodesk.com"
 90
        0
 91
        2
280
     0
281
     0
  0
CLASS
  1
MATERIAL
  2
AcDbMaterial
  3
ObjectDBX Classes
 90
     1153
 91
        3
280
     0
281
     0
  0
CLASS
  1
VISUALSTYLE
  2
AcDbVisualStyle
  3
ObjectDBX Classes
 90
     4095
 91
       24
280
     0
281
     0
  0
CLASS
  1
SCALE
  2
AcDbScale
  3
ObjectDBX Classes
 90
     1153
 91
       17
280
     0
281
     0
  0
CLASS
  1
MLEADERSTYLE
  2
AcDbMLeaderStyle
  3
ACDB_MLEADERSTYLE_CLASS
 90
     4095
 91
        1
280
     0
281
     0
  0
CLASS
  1
CELLSTYLEMAP
  2
AcDbCellStyleMap
  3
ObjectDBX Classes
 90
     1152
 91
        1
280
     0
281
     0
  0
ENDSEC
  0
SECTION
  2
TABLES
  0
TABLE
  2
VPORT
  5
8
330
0
100
AcDbSymbolTable
 70
     1
  0
VPORT
  5
27D8
330
8
100
AcDbSymbolTableRecord
100
AcDbViewportTableRecord
  2
*Active
 70
     0
 10
0.0
 20
0.0
 11
1.0
 21
1.0
 12
661.8283148356633
 22
-283.4720100090773
 13
0.0
 23
0.0
 14
10.0
 24
10.0
 15
10.0
 25
10.0
 16
0.0
 26
0.0
 36
1.0
 17
0.0
 27
0.0
 37
0.0
 40
136.1759049730082
 41
2.526666666666666
 42
50.0
 43
0.0
 44
0.0
 50
0.0
 51
0.0
 71
     0
 72
  1000
 73
     1
 74
     3
 75
     0
 76
     0
 77
     0
 78
     0
281
     0
 65
     1
110
0.0
120
0.0
130
0.0
111
1.0
121
0.0
131
0.0
112
0.0
122
1.0
132
0.0
 79
     0
146
0.0
348
27F9
 60
     3
 61
     5
292
     1
282
     1
141
0.0
142
0.0
 63
   250
421
  3355443
1001
ACAD_NAV_VCDISPLAY
1070
     3
  0
ENDTAB
  0
TABLE
  2
LTYPE
  5
5
330
0
100
AcDbSymbolTable
 70
     1
  0
LTYPE
  5
14
330
5
100
AcDbSymbolTableRecord
100
AcDbLinetypeTableRecord
  2
ByBlock
 70
     0
  3

 72
    65
 73
     0
 40
0.0
  0
LTYPE
  5
15
330
5
100
AcDbSymbolTableRecord
100
AcDbLinetypeTableRecord
  2
ByLayer
 70
     0
  3

 72
    65
 73
     0
 40
0.0
  0
LTYPE
  5
16
330
5
100
AcDbSymbolTableRecord
100
AcDbLinetypeTableRecord
  2
Continuous
 70
     0
  3
Solid line
 72
    65
 73
     0
 40
0.0
  0
ENDTAB
  0
TABLE
  2
LAYER
  5
2
330
0
100
AcDbSymbolTable
 70
     4
  0
LAYER
  5
10
102
{ACAD_XDICTIONARY
360
28BA
102
}
330
2
100
AcDbSymbolTableRecord
100
AcDbLayerTableRecord
  2
0
 70
     0
 62
     7
  6
Continuous
370
    -3
390
F
347
27EB
  0
LAYER
  5
283
330
2
100
AcDbSymbolTableRecord
100
AcDbLayerTableRecord
  2
Defpoints
 70
     0
 62
     7
  6
Continuous
290
     0
370
    -3
390
F
347
27EB
  0
LAYER
  5
285F
102
{ACAD_XDICTIONARY
360
28BC
102
}
330
2
100
AcDbSymbolTableRecord
100
AcDbLayerTableRecord
  2
COTAS
 70
     0
 62
     4
  6
Continuous
370
    -3
390
F
347
27EB
1001
AcAecLayerStandard
1000

1000

1001
AcCmTransparency
1071
        0
  0
LAYER
  5
2862
102
{ACAD_XDICTIONARY
360
28BE
102
}
330
2
100
AcDbSymbolTableRecord
100
AcDbLayerTableRecord
  2
ARTICULO
 70
     0
 62
     7
  6
Continuous
370
    -3
390
F
347
27EB
1001
AcAecLayerStandard
1000

1000

1001
AcCmTransparency
1071
        0
  0
ENDTAB
  0
TABLE
  2
STYLE
  5
3
330
0
100
AcDbSymbolTable
 70
     2
  0
STYLE
  5
11
330
3
100
AcDbSymbolTableRecord
100
AcDbTextStyleTableRecord
  2
Standard
 70
     0
 40
0.0
 41
1.0
 50
0.0
 71
     0
 42
2.5
  3
txt
  4

  0
STYLE
  5
3BD
330
3
100
AcDbSymbolTableRecord
100
AcDbTextStyleTableRecord
  2
Arial
 70
     0
 40
0.0
 41
1.0
 50
0.0
 71
     0
 42
2.5
  3
ARIAL.TTF
  4

1001
ACAD
1000
Arial
1071
       34
  0
ENDTAB
  0
TABLE
  2
VIEW
  5
6
330
0
100
AcDbSymbolTable
 70
     0
  0
ENDTAB
  0
TABLE
  2
UCS
  5
7
330
0
100
AcDbSymbolTable
 70
     0
  0
ENDTAB
  0
TABLE
  2
APPID
  5
9
330
0
100
AcDbSymbolTable
 70
    15
  0
APPID
  5
12
330
9
100
AcDbSymbolTableRecord
100
AcDbRegAppTableRecord
  2
ACAD
 70
     0
  0
APPID
  5
9E
330
9
100
AcDbSymbolTableRecord
100
AcDbRegAppTableRecord
  2
ACAD_PSEXT
 70
     0
  0
APPID
  5
E7
330
9
100
AcDbSymbolTableRecord
100
AcDbRegAppTableRecord
  2
ACAD_EXEMPT_FROM_CAD_STANDARDS
 70
     0
  0
APPID
  5
29B
330
9
100
AcDbSymbolTableRecord
100
AcDbRegAppTableRecord
  2
ACAD_DSTYLE_DIMTEXT_FILL
 70
     0
  0
APPID
  5
29C
330
9
100
AcDbSymbolTableRecord
100
AcDbRegAppTableRecord
  2
ACAD_DSTYLE_DIMEXT_LENGTH
 70
     0
  0
APPID
  5
29D
330
9
100
AcDbSymbolTableRecord
100
AcDbRegAppTableRecord
  2
ACAD_DSTYLE_DIMEXT_ENABLED
 70
     0
  0
APPID
  5
29E
330
9
100
AcDbSymbolTableRecord
100
AcDbRegAppTableRecord
  2
ACAD_DSTYLE_DIM_LINETYPE
 70
     0
  0
APPID
  5
29F
330
9
100
AcDbSymbolTableRecord
100
AcDbRegAppTableRecord
  2
ACAD_DSTYLE_DIM_EXT1_LINETYPE
 70
     0
  0
APPID
  5
2A0
330
9
100
AcDbSymbolTableRecord
100
AcDbRegAppTableRecord
  2
ACAD_DSTYLE_DIM_EXT2_LINETYPE
 70
     0
  0
APPID
  5
35C
330
9
100
AcDbSymbolTableRecord
100
AcDbRegAppTableRecord
  2
ACAD_DSTYLE_DIMJOGGED_JOGANGLE_SYMBOL
 70
     0
  0
APPID
  5
514
330
9
100
AcDbSymbolTableRecord
100
AcDbRegAppTableRecord
  2
ACAD_DSTYLE_DIMARC_LENGTH_SYMBOL
 70
     0
  0
APPID
  5
2860
330
9
100
AcDbSymbolTableRecord
100
AcDbRegAppTableRecord
  2
AcAecLayerStandard
 70
     0
  0
APPID
  5
2861
330
9
100
AcDbSymbolTableRecord
100
AcDbRegAppTableRecord
  2
AcCmTransparency
 70
     0
  0
APPID
  5
28C6
330
9
100
AcDbSymbolTableRecord
100
AcDbRegAppTableRecord
  2
ACAD_NAV_VCDISPLAY
 70
     0
  0
APPID
  5
28FA
330
9
100
AcDbSymbolTableRecord
100
AcDbRegAppTableRecord
  2
ACAD_MLEADERVER
 70
     0
  0
ENDTAB
  0
TABLE
  2
DIMSTYLE
  5
A
330
0
100
AcDbSymbolTable
 70
     3
100
AcDbDimStyleTable
 71
     2
340
CAB
340
27
  0
DIMSTYLE
105
27
330
A
100
AcDbSymbolTableRecord
100
AcDbDimStyleTableRecord
  2
Cotas 1-1
 70
     0
 41
3.0
 42
7.0
 43
3.75
 44
1.25
 49
1.25
 50
89.99999999999998
 73
     0
 74
     0
 77
     1
 78
     8
140
3.0
141
2.5
143
0.03937007874016
147
0.625
171
     3
172
     1
271
     0
272
     0
274
     3
278
    44
283
     0
284
     8
340
3BD
1001
ACAD_DSTYLE_DIMJOGGED_JOGANGLE_SYMBOL
1070
   384
1040
1.570796326794896
  0
DIMSTYLE
105
CAB
102
{ACAD_REACTORS
330
2789
330
27A1
102
}
330
A
100
AcDbSymbolTableRecord
100
AcDbDimStyleTableRecord
  2
Radios 1-1
 70
     0
 41
3.0
 42
7.0
 43
3.75
 44
1.25
 49
1.25
 50
89.99999999999998
 77
     1
 78
     8
140
3.0
141
0.0
143
0.03937007874016
147
0.625
171
     3
172
     1
271
     2
272
     2
274
     3
278
    44
283
     0
284
     8
340
3BD
1001
ACAD_DSTYLE_DIMJOGGED_JOGANGLE_SYMBOL
1070
   384
1040
1.570796326794896
  0
DIMSTYLE
105
18A7
330
A
100
AcDbSymbolTableRecord
100
AcDbDimStyleTableRecord
  2
ISO-25
 70
     0
 41
2.5
 42
0.625
 43
3.75
 44
1.25
 73
     0
 74
     0
 77
     1
 78
     8
140
2.5
141
2.5
143
0.03937007874016
147
0.625
171
     3
172
     1
271
     2
272
     2
274
     3
278
    44
283
     0
284
     8
340
11
  0
ENDTAB
  0
TABLE
  2
BLOCK_RECORD
  5
1
330
0
100
AcDbSymbolTable
 70
    46
  0
BLOCK_RECORD
  5
1F
102
{ACAD_XDICTIONARY
360
EF
102
}
330
1
100
AcDbSymbolTableRecord
100
AcDbBlockTableRecord
  2
*Model_Space
340
22
 70
     0
280
     1
281
     0
  0
BLOCK_RECORD
  5
D2
330
1
100
AcDbSymbolTableRecord
100
AcDbBlockTableRecord
  2
*Paper_Space
340
D3
 70
     0
280
     1
281
     0
  0
BLOCK_RECORD
  5
D6
330
1
100
AcDbSymbolTableRecord
100
AcDbBlockTableRecord
  2
*Paper_Space0
340
D7
 70
     0
280
     1
281
     0
  0
BLOCK_RECORD
  5
15A
102
{ACAD_XDICTIONARY
360
15C
102
}
330
1
100
AcDbSymbolTableRecord
100
AcDbBlockTableRecord
  2
A$C363A4961
340
0
 70
     4
280
     1
281
     0
  0
BLOCK_RECORD
  5
284
330
1
100
AcDbSymbolTableRecord
100
AcDbBlockTableRecord
  2
*D2
340
0
 70
     0
280
     1
281
     0
  0
BLOCK_RECORD
  5
9D0
330
1
100
AcDbSymbolTableRecord
100
AcDbBlockTableRecord
  2
*D3
340
0
 70
     0
280
     1
281
     0
  0
BLOCK_RECORD
  5
9E8
330
1
100
AcDbSymbolTableRecord
100
AcDbBlockTableRecord
  2
*D4
340
0
 70
     0
280
     1
281
     0
  0
BLOCK_RECORD
  5
D2C
330
1
100
AcDbSymbolTableRecord
100
AcDbBlockTableRecord
  2
*D5
340
0
 70
     0
280
     1
281
     0
  0
BLOCK_RECORD
  5
D44
330
1
100
AcDbSymbolTableRecord
100
AcDbBlockTableRecord
  2
*D6
340
0
 70
     0
280
     1
281
     0
  0
BLOCK_RECORD
  5
D82
330
1
100
AcDbSymbolTableRecord
100
AcDbBlockTableRecord
  2
*D7
340
0
 70
     0
280
     1
281
     0
  0
BLOCK_RECORD
  5
D9A
330
1
100
AcDbSymbolTableRecord
100
AcDbBlockTableRecord
  2
*D8
340
0
 70
     0
280
     1
281
     0
  0
BLOCK_RECORD
  5
DBE
330
1
100
AcDbSymbolTableRecord
100
AcDbBlockTableRecord
  2
*D9
340
0
 70
     0
280
     1
281
     0
  0
BLOCK_RECORD
  5
DD6
330
1
100
AcDbSymbolTableRecord
100
AcDbBlockTableRecord
  2
*D10
340
0
 70
     0
280
     1
281
     0
  0
BLOCK_RECORD
  5
E02
330
1
100
AcDbSymbolTableRecord
100
AcDbBlockTableRecord
  2
*D11
340
0
 70
     0
280
     1
281
     0
  0
BLOCK_RECORD
  5
E28
330
1
100
AcDbSymbolTableRecord
100
AcDbBlockTableRecord
  2
*D12
340
0
 70
     0
280
     1
281
     0
  0
BLOCK_RECORD
  5
E6E
330
1
100
AcDbSymbolTableRecord
100
AcDbBlockTableRecord
  2
*D13
340
0
 70
     0
280
     1
281
     0
  0
BLOCK_RECORD
  5
E86
330
1
100
AcDbSymbolTableRecord
100
AcDbBlockTableRecord
  2
*D14
340
0
 70
     0
280
     1
281
     0
  0
BLOCK_RECORD
  5
FD3
330
1
100
AcDbSymbolTableRecord
100
AcDbBlockTableRecord
  2
*D15
340
0
 70
     0
280
     1
281
     0
  0
BLOCK_RECORD
  5
FEB
330
1
100
AcDbSymbolTableRecord
100
AcDbBlockTableRecord
  2
*D16
340
0
 70
     0
280
     1
281
     0
  0
BLOCK_RECORD
  5
101F
330
1
100
AcDbSymbolTableRecord
100
AcDbBlockTableRecord
  2
*D17
340
0
 70
     0
280
     1
281
     0
  0
BLOCK_RECORD
  5
10CA
330
1
100
AcDbSymbolTableRecord
100
AcDbBlockTableRecord
  2
*D18
340
0
 70
     0
280
     1
281
     0
  0
BLOCK_RECORD
  5
10D6
330
1
100
AcDbSymbolTableRecord
100
AcDbBlockTableRecord
  2
*D19
340
0
 70
     0
280
     1
281
     0
  0
BLOCK_RECORD
  5
10E2
330
1
100
AcDbSymbolTableRecord
100
AcDbBlockTableRecord
  2
*D20
340
0
 70
     0
280
     1
281
     0
  0
BLOCK_RECORD
  5
117B
330
1
100
AcDbSymbolTableRecord
100
AcDbBlockTableRecord
  2
*D21
340
0
 70
     0
280
     1
281
     0
  0
BLOCK_RECORD
  5
1187
330
1
100
AcDbSymbolTableRecord
100
AcDbBlockTableRecord
  2
*D22
340
0
 70
     0
280
     1
281
     0
  0
BLOCK_RECORD
  5
11B3
330
1
100
AcDbSymbolTableRecord
100
AcDbBlockTableRecord
  2
*D23
340
0
 70
     0
280
     1
281
     0
  0
BLOCK_RECORD
  5
12C8
330
1
100
AcDbSymbolTableRecord
100
AcDbBlockTableRecord
  2
*D24
340
0
 70
     0
280
     1
281
     0
  0
BLOCK_RECORD
  5
131B
330
1
100
AcDbSymbolTableRecord
100
AcDbBlockTableRecord
  2
*D25
340
0
 70
     0
280
     1
281
     0
  0
BLOCK_RECORD
  5
13A7
330
1
100
AcDbSymbolTableRecord
100
AcDbBlockTableRecord
  2
*D26
340
0
 70
     0
280
     1
281
     0
  0
BLOCK_RECORD
  5
13BF
330
1
100
AcDbSymbolTableRecord
100
AcDbBlockTableRecord
  2
*D27
340
0
 70
     0
280
     1
281
     0
  0
BLOCK_RECORD
  5
13D7
330
1
100
AcDbSymbolTableRecord
100
AcDbBlockTableRecord
  2
*D28
340
0
 70
     0
280
     1
281
     0
  0
BLOCK_RECORD
  5
13EF
330
1
100
AcDbSymbolTableRecord
100
AcDbBlockTableRecord
  2
*D29
340
0
 70
     0
280
     1
281
     0
  0
BLOCK_RECORD
  5
142B
330
1
100
AcDbSymbolTableRecord
100
AcDbBlockTableRecord
  2
*D30
340
0
 70
     0
280
     1
281
     0
  0
BLOCK_RECORD
  5
1455
330
1
100
AcDbSymbolTableRecord
100
AcDbBlockTableRecord
  2
*D31
340
0
 70
     0
280
     1
281
     0
  0
BLOCK_RECORD
  5
176C
330
1
100
AcDbSymbolTableRecord
100
AcDbBlockTableRecord
  2
*D32
340
0
 70
     0
280
     1
281
     0
  0
BLOCK_RECORD
  5
17A8
330
1
100
AcDbSymbolTableRecord
100
AcDbBlockTableRecord
  2
*D33
340
0
 70
     0
280
     1
281
     0
  0
BLOCK_RECORD
  5
1813
330
1
100
AcDbSymbolTableRecord
100
AcDbBlockTableRecord
  2
*D34
340
0
 70
     0
280
     1
281
     0
  0
BLOCK_RECORD
  5
1834
330
1
100
AcDbSymbolTableRecord
100
AcDbBlockTableRecord
  2
*D35
340
0
 70
     0
280
     1
281
     0
  0
BLOCK_RECORD
  5
1860
330
1
100
AcDbSymbolTableRecord
100
AcDbBlockTableRecord
  2
*D36
340
0
 70
     0
280
     1
281
     0
  0
BLOCK_RECORD
  5
1878
330
1
100
AcDbSymbolTableRecord
100
AcDbBlockTableRecord
  2
*D37
340
0
 70
     0
280
     1
281
     0
  0
BLOCK_RECORD
  5
1941
330
1
100
AcDbSymbolTableRecord
100
AcDbBlockTableRecord
  2
*D38
340
0
 70
     0
280
     1
281
     0
  0
BLOCK_RECORD
  5
21F4
330
1
100
AcDbSymbolTableRecord
100
AcDbBlockTableRecord
  2
*D39
340
0
 70
     0
280
     1
281
     0
  0
BLOCK_RECORD
  5
2230
330
1
100
AcDbSymbolTableRecord
100
AcDbBlockTableRecord
  2
*D40
340
0
 70
     0
280
     1
281
     0
  0
BLOCK_RECORD
  5
225A
330
1
100
AcDbSymbolTableRecord
100
AcDbBlockTableRecord
  2
*D41
340
0
 70
     0
280
     1
281
     0
  0
BLOCK_RECORD
  5
22AE
330
1
100
AcDbSymbolTableRecord
100
AcDbBlockTableRecord
  2
*D42
340
0
 70
     0
280
     1
281
     0
  0
BLOCK_RECORD
  5
2712
330
1
100
AcDbSymbolTableRecord
100
AcDbBlockTableRecord
  2
*D43
340
0
 70
     0
280
     1
281
     0
  0
BLOCK_RECORD
  5
278A
330
1
100
AcDbSymbolTableRecord
100
AcDbBlockTableRecord
  2
*D44
340
0
 70
     0
280
     1
281
     0
  0
BLOCK_RECORD
  5
27A2
330
1
100
AcDbSymbolTableRecord
100
AcDbBlockTableRecord
  2
*D45
340
0
 70
     0
280
     1
281
     0
  0
ENDTAB
  0
ENDSEC
  0
SECTION
  2
BLOCKS
  0
BLOCK
  5
20
330
1F
100
AcDbEntity
  8
0
100
AcDbBlockBegin
  2
*Model_Space
 70
     0
 10
0.0
 20
0.0
 30
0.0
  3
*Model_Space
  1

  0
ENDBLK
  5
21
330
1F
100
AcDbEntity
  8
0
100
AcDbBlockEnd
  0
BLOCK
  5
D4
330
D2
100
AcDbEntity
 67
     1
  8
0
100
AcDbBlockBegin
  2
*Paper_Space
 70
     0
 10
0.0
 20
0.0
 30
0.0
  3
*Paper_Space
  1

  0
ENDBLK
  5
D5
330
D2
100
AcDbEntity
 67
     1
  8
0
100
AcDbBlockEnd
  0
BLOCK
  5
D8
330
D6
100
AcDbEntity
 67
     1
  8
0
100
AcDbBlockBegin
  2
*Paper_Space0
 70
     0
 10
0.0
 20
0.0
 30
0.0
  3
*Paper_Space0
  1

  0
ENDBLK
  5
D9
330
D6
100
AcDbEntity
 67
     1
  8
0
100
AcDbBlockEnd
  0
BLOCK
  5
15E
330
15A
100
AcDbEntity
  8
0
100
AcDbBlockBegin
  2
A$C363A4961
 70
     0
 10
0.0
 20
0.0
 30
0.0
  3
A$C363A4961
  1

  0
MTEXT
  5
15B
330
15A
100
AcDbEntity
  8
0
100
AcDbMText
 10
0.900000219951039
 20
4.477362740790964
 30
0.0
 40
3.0
 41
59.2885880646412
 46
0.0
 71
     1
 72
     5
  1
{\fISOCPEUR|b0|i0|c0|p34;TIM281 AI.10X128}
 73
     1
 44
1.0
1001
ACAD
1000
ACAD_MTEXT_DEFINED_HEIGHT_BEGIN
1070
    46
1040
0.0
1000
ACAD_MTEXT_DEFINED_HEIGHT_END
  0
ENDBLK
  5
15F
330
15A
100
AcDbEntity
  8
0
100
AcDbBlockEnd
  0
BLOCK
  5
28E
330
284
100
AcDbEntity
  8
0
100
AcDbBlockBegin
  2
*D2
 70
     1
 10
0.0
 20
0.0
 30
0.0
  3
*D2
  1

  0
LINE
  5
25D5
330
284
100
AcDbEntity
  8
0
 62
     0
370
    -2
100
AcDbLine
 10
1017.101021034427
 20
-286.262633818613
 30
0.0
 11
1006.882863772811
 21
-286.262633818613
 31
0.0
  0
LINE
  5
25D6
330
284
100
AcDbEntity
  8
0
 62
     0
370
    -2
100
AcDbLine
 10
1017.101021034427
 20
-326.2626338186132
 30
0.0
 11
1006.882863772811
 21
-326.2626338186132
 31
0.0
  0
LINE
  5
25D7
330
284
100
AcDbEntity
  8
0
 62
     0
370
    -2
100
AcDbLine
 10
1008.132863772811
 20
-289.2626338186131
 30
0.0
 11
1008.132863772811
 21
-323.262633818613
 31
0.0
  0
SOLID
  5
25D8
330
284
100
AcDbEntity
  8
0
 62
     0
100
AcDbTrace
 10
1007.632863772811
 20
-289.2626338186131
 30
0.0
 11
1008.632863772811
 21
-289.2626338186131
 31
0.0
 12
1008.132863772811
 22
-286.262633818613
 32
0.0
 13
1008.132863772811
 23
-286.262633818613
 33
0.0
  0
SOLID
  5
25D9
330
284
100
AcDbEntity
  8
0
 62
     0
100
AcDbTrace
 10
1007.632863772811
 20
-323.262633818613
 30
0.0
 11
1008.632863772811
 21
-323.262633818613
 31
0.0
 12
1008.132863772811
 22
-326.2626338186132
 32
0.0
 13
1008.132863772811
 23
-326.2626338186132
 33
0.0
  0
MTEXT
  5
25DA
330
284
100
AcDbEntity
  8
0
 62
     0
100
AcDbMText
 10
1005.976144809646
 20
-306.2626338186129
 30
0.0
 40
3.0
 41
0.0
 46
0.0
 71
     5
 72
     1
  1
40
  7
Arial
 11
0.0000000000000001
 21
1.0
 31
0.0
 73
     1
 44
1.0
  0
POINT
  5
25DB
330
284
100
AcDbEntity
  8
Defpoints
 62
     0
100
AcDbPoint
 10
1024.101021034427
 20
-286.262633818613
 30
0.0
  0
POINT
  5
25DC
330
284
100
AcDbEntity
  8
Defpoints
 62
     0
100
AcDbPoint
 10
1024.101021034427
 20
-326.2626338186132
 30
0.0
  0
POINT
  5
25DD
330
284
100
AcDbEntity
  8
Defpoints
 62
     0
100
AcDbPoint
 10
1008.132863772811
 20
-326.2626338186132
 30
0.0
  0
ENDBLK
  5
28F
330
284
100
AcDbEntity
  8
0
100
AcDbBlockEnd
  0
BLOCK
  5
9DA
330
9D0
100
AcDbEntity
  8
0
100
AcDbBlockBegin
  2
*D3
 70
     1
 10
0.0
 20
0.0
 30
0.0
  3
*D3
  1

  0
LINE
  5
25DE
330
9D0
100
AcDbEntity
  8
0
 62
     0
370
    -2
100
AcDbLine
 10
1024.101021034427
 20
-333.262633818613
 30
0.0
 11
1024.101021034427
 21
-339.3396990657147
 31
0.0
  0
LINE
  5
25DF
330
9D0
100
AcDbEntity
  8
0
 62
     0
370
    -2
100
AcDbLine
 10
1052.101021034427
 20
-333.262633818613
 30
0.0
 11
1052.101021034427
 21
-339.3396990657147
 31
0.0
  0
LINE
  5
25E0
330
9D0
100
AcDbEntity
  8
0
 62
     0
370
    -2
100
AcDbLine
 10
1027.101021034427
 20
-338.0896990657147
 30
0.0
 11
1049.101021034427
 21
-338.0896990657147
 31
0.0
  0
SOLID
  5
25E1
330
9D0
100
AcDbEntity
  8
0
 62
     0
100
AcDbTrace
 10
1027.101021034427
 20
-337.5896990657147
 30
0.0
 11
1027.101021034427
 21
-338.5896990657148
 31
0.0
 12
1024.101021034427
 22
-338.0896990657147
 32
0.0
 13
1024.101021034427
 23
-338.0896990657147
 33
0.0
  0
SOLID
  5
25E2
330
9D0
100
AcDbEntity
  8
0
 62
     0
100
AcDbTrace
 10
1049.101021034427
 20
-337.5896990657147
 30
0.0
 11
1049.101021034427
 21
-338.5896990657148
 31
0.0
 12
1052.101021034427
 22
-338.0896990657147
 32
0.0
 13
1052.101021034427
 23
-338.0896990657147
 33
0.0
  0
MTEXT
  5
25E3
330
9D0
100
AcDbEntity
  8
0
 62
     0
100
AcDbMText
 10
1038.101021034427
 20
-335.9329801025497
 30
0.0
 40
3.0
 41
0.0
 46
0.0
 71
     5
 72
     1
  1
28
  7
Arial
 73
     1
 44
1.0
  0
POINT
  5
25E4
330
9D0
100
AcDbEntity
  8
Defpoints
 62
     0
100
AcDbPoint
 10
1024.101021034427
 20
-326.2626338186132
 30
0.0
  0
POINT
  5
25E5
330
9D0
100
AcDbEntity
  8
Defpoints
 62
     0
100
AcDbPoint
 10
1052.101021034427
 20
-326.2626338186132
 30
0.0
  0
POINT
  5
25E6
330
9D0
100
AcDbEntity
  8
Defpoints
 62
     0
100
AcDbPoint
 10
1052.101021034427
 20
-338.0896990657147
 30
0.0
  0
ENDBLK
  5
9DB
330
9D0
100
AcDbEntity
  8
0
100
AcDbBlockEnd
  0
BLOCK
  5
9F1
330
9E8
100
AcDbEntity
  8
0
100
AcDbBlockBegin
  2
*D4
 70
     1
 10
0.0
 20
0.0
 30
0.0
  3
*D4
  1

  0
LINE
  5
212F
330
9E8
100
AcDbEntity
  8
0
 62
     0
370
    -2
100
AcDbLine
 10
1068.020010563743
 20
-234.1879680662555
 30
0.0
 11
1059.845897330455
 21
-234.1879680662554
 31
0.0
  0
LINE
  5
2130
330
9E8
100
AcDbEntity
  8
0
 62
     0
370
    -2
100
AcDbLine
 10
1059.845897330455
 20
-234.1879680662554
 30
0.0
 11
1057.00960911793
 21
-235.1654491021275
 31
0.0
  0
LINE
  5
2131
330
9E8
100
AcDbEntity
  8
0
 62
     0
370
    -2
100
AcDbLine
 10
1019.192432950924
 20
-248.1985295804217
 30
0.0
 11
1016.356144738399
 21
-249.1760106162939
 31
0.0
  0
MTEXT
  5
2132
330
9E8
100
AcDbEntity
  8
0
 62
     0
100
AcDbMText
 10
1064.2454539471
 20
-231.947347329557
 30
0.0
 40
3.0
 41
0.0
 46
0.0
 71
     5
 72
     1
  1
∅34
  7
Arial
 73
     1
 44
1.0
  0
LINE
  5
2133
330
9E8
100
AcDbEntity
  8
0
 62
     0
370
    -2
100
AcDbLine
 10
1022.02872116345
 20
-247.2210485445496
 30
0.0
 11
1054.173320905404
 21
-236.1429301379996
 31
0.0
  0
SOLID
  5
2134
330
9E8
100
AcDbEntity
  8
0
 62
     0
100
AcDbTrace
 10
1019.029519444946
 20
-247.7258148783342
 30
0.0
 11
1019.355346456903
 21
-248.6712442825093
 31
0.0
 12
1022.02872116345
 22
-247.2210485445496
 32
0.0
 13
1022.02872116345
 23
-247.2210485445496
 33
0.0
  0
SOLID
  5
2135
330
9E8
100
AcDbEntity
  8
0
 62
     0
100
AcDbTrace
 10
1056.846695611951
 20
-234.69273440004
 30
0.0
 11
1057.172522623909
 21
-235.6381638042151
 31
0.0
 12
1054.173320905404
 22
-236.1429301379996
 32
0.0
 13
1054.173320905404
 23
-236.1429301379996
 33
0.0
  0
POINT
  5
2136
330
9E8
100
AcDbEntity
  8
Defpoints
 62
     0
100
AcDbPoint
 10
1054.173320905404
 20
-236.1429301379996
 30
0.0
  0
POINT
  5
2137
330
9E8
100
AcDbEntity
  8
Defpoints
 62
     0
100
AcDbPoint
 10
1022.02872116345
 20
-247.2210485445496
 30
0.0
  0
ENDBLK
  5
9F2
330
9E8
100
AcDbEntity
  8
0
100
AcDbBlockEnd
  0
BLOCK
  5
D36
330
D2C
100
AcDbEntity
  8
0
100
AcDbBlockBegin
  2
*D5
 70
     1
 10
0.0
 20
0.0
 30
0.0
  3
*D5
  1

  0
LINE
  5
25E7
330
D2C
100
AcDbEntity
  8
0
 62
     0
370
    -2
100
AcDbLine
 10
1010.485741649211
 20
66.40754093462897
 30
0.0
 11
1002.112735746581
 21
66.40754093462897
 31
0.0
  0
LINE
  5
25E8
330
D2C
100
AcDbEntity
  8
0
 62
     0
370
    -2
100
AcDbLine
 10
1010.485741649211
 20
87.4075409346287
 30
0.0
 11
1002.112735746581
 21
87.4075409346287
 31
0.0
  0
LINE
  5
25E9
330
D2C
100
AcDbEntity
  8
0
 62
     0
370
    -2
100
AcDbLine
 10
1003.362735746581
 20
69.40754093462897
 30
0.0
 11
1003.362735746581
 21
84.40754093462869
 31
0.0
  0
SOLID
  5
25EA
330
D2C
100
AcDbEntity
  8
0
 62
     0
100
AcDbTrace
 10
1002.862735746581
 20
69.40754093462897
 30
0.0
 11
1003.862735746581
 21
69.40754093462897
 31
0.0
 12
1003.362735746581
 22
66.40754093462897
 32
0.0
 13
1003.362735746581
 23
66.40754093462897
 33
0.0
  0
SOLID
  5
25EB
330
D2C
100
AcDbEntity
  8
0
 62
     0
100
AcDbTrace
 10
1002.862735746581
 20
84.40754093462869
 30
0.0
 11
1003.862735746581
 21
84.40754093462869
 31
0.0
 12
1003.362735746581
 22
87.4075409346287
 32
0.0
 13
1003.362735746581
 23
87.4075409346287
 33
0.0
  0
MTEXT
  5
25EC
330
D2C
100
AcDbEntity
  8
0
 62
     0
100
AcDbMText
 10
1001.23159659242
 20
76.90754093462898
 30
0.0
 40
3.0
 41
0.0
 46
0.0
 71
     5
 72
     1
  1
21
  7
Arial
 11
0.0000000000000001
 21
1.0
 31
0.0
 73
     1
 44
1.0
  0
POINT
  5
25ED
330
D2C
100
AcDbEntity
  8
Defpoints
 62
     0
100
AcDbPoint
 10
1017.485741649211
 20
66.40754093462897
 30
0.0
  0
POINT
  5
25EE
330
D2C
100
AcDbEntity
  8
Defpoints
 62
     0
100
AcDbPoint
 10
1017.485741649211
 20
87.4075409346287
 30
0.0
  0
POINT
  5
25EF
330
D2C
100
AcDbEntity
  8
Defpoints
 62
     0
100
AcDbPoint
 10
1003.362735746581
 20
87.4075409346287
 30
0.0
  0
ENDBLK
  5
D37
330
D2C
100
AcDbEntity
  8
0
100
AcDbBlockEnd
  0
BLOCK
  5
D4E
330
D44
100
AcDbEntity
  8
0
100
AcDbBlockBegin
  2
*D6
 70
     1
 10
0.0
 20
0.0
 30
0.0
  3
*D6
  1

  0
LINE
  5
2138
330
D44
100
AcDbEntity
  8
0
 62
     0
370
    -2
100
AcDbLine
 10
1207.40404565362
 20
74.59857920644754
 30
0.0
 11
1199.229932420332
 21
74.59857920644758
 31
0.0
  0
LINE
  5
2139
330
D44
100
AcDbEntity
  8
0
 62
     0
370
    -2
100
AcDbLine
 10
1199.229932420332
 20
74.59857920644758
 30
0.0
 11
1190.707703610402
 21
73.44198967280623
 31
0.0
  0
LINE
  5
213A
330
D44
100
AcDbEntity
  8
0
 62
     0
370
    -2
100
AcDbLine
 10
1131.252738355042
 20
65.37309219645178
 30
0.0
 11
1128.279990092274
 21
64.96964732263407
 31
0.0
  0
MTEXT
  5
213B
330
D44
100
AcDbEntity
  8
0
 62
     0
100
AcDbMText
 10
1203.629489036976
 20
76.83919994314607
 30
0.0
 40
3.0
 41
0.0
 46
0.0
 71
     5
 72
     1
  1
∅54
  7
Arial
 73
     1
 44
1.0
  0
LINE
  5
213C
330
D44
100
AcDbEntity
  8
0
 62
     0
370
    -2
100
AcDbLine
 10
1134.22548661781
 20
65.77653707026951
 30
0.0
 11
1187.734955347634
 21
73.03854479898848
 31
0.0
  0
SOLID
  5
213D
330
D44
100
AcDbEntity
  8
0
 62
     0
100
AcDbTrace
 10
1131.185497542739
 20
65.86855024024643
 30
0.0
 11
1131.319979167345
 21
64.87763415265709
 31
0.0
 12
1134.22548661781
 22
65.77653707026951
 32
0.0
 13
1134.22548661781
 23
65.77653707026951
 33
0.0
  0
SOLID
  5
213E
330
D44
100
AcDbEntity
  8
0
 62
     0
100
AcDbTrace
 10
1190.640462798099
 20
73.93744771660087
 30
0.0
 11
1190.774944422705
 21
72.94653162901155
 31
0.0
 12
1187.734955347634
 22
73.03854479898848
 32
0.0
 13
1187.734955347634
 23
73.03854479898848
 33
0.0
  0
POINT
  5
213F
330
D44
100
AcDbEntity
  8
Defpoints
 62
     0
100
AcDbPoint
 10
1187.734955347634
 20
73.03854479898848
 30
0.0
  0
POINT
  5
2140
330
D44
100
AcDbEntity
  8
Defpoints
 62
     0
100
AcDbPoint
 10
1134.22548661781
 20
65.77653707026951
 30
0.0
  0
ENDBLK
  5
D4F
330
D44
100
AcDbEntity
  8
0
100
AcDbBlockEnd
  0
BLOCK
  5
D8C
330
D82
100
AcDbEntity
  8
0
100
AcDbBlockBegin
  2
*D7
 70
     1
 10
0.0
 20
0.0
 30
0.0
  3
*D7
  1

  0
LINE
  5
2141
330
D82
100
AcDbEntity
  8
0
 62
     0
370
    -2
100
AcDbLine
 10
1064.396882174228
 20
200.4760947336103
 30
0.0
 11
1056.212537017339
 21
200.4760947336103
 31
0.0
  0
LINE
  5
2142
330
D82
100
AcDbEntity
  8
0
 62
     0
370
    -2
100
AcDbLine
 10
1056.212537017339
 20
200.4760947336103
 30
0.0
 11
1047.63590666615
 21
198.2273353400754
 31
0.0
  0
LINE
  5
2143
330
D82
100
AcDbEntity
  8
0
 62
     0
370
    -2
100
AcDbLine
 10
997.3361450923365
 20
185.038931887896
 30
0.0
 11
994.43423577077
 21
184.2780624579626
 31
0.0
  0
MTEXT
  5
2144
330
D82
100
AcDbEntity
  8
0
 62
     0
100
AcDbMText
 10
1060.617209595783
 20
202.7167154703088
 30
0.0
 40
3.0
 41
0.0
 46
0.0
 71
     5
 72
     1
  1
∅46
  7
Arial
 73
     1
 44
1.0
  0
LINE
  5
2145
330
D82
100
AcDbEntity
  8
0
 62
     0
370
    -2
100
AcDbLine
 10
1000.238054413902
 20
185.7998013178296
 30
0.0
 11
1044.733997344584
 21
197.4664659101421
 31
0.0
  0
SOLID
  5
2146
330
D82
100
AcDbEntity
  8
0
 62
     0
100
AcDbTrace
 10
997.2093335206807
 20
185.5225834414905
 30
0.0
 11
997.462956663992
 21
184.5552803343016
 31
0.0
 12
1000.238054413902
 22
185.7998013178296
 32
0.0
 13
1000.238054413902
 23
185.7998013178296
 33
0.0
  0
SOLID
  5
2147
330
D82
100
AcDbEntity
  8
0
 62
     0
100
AcDbTrace
 10
1047.509095094495
 20
198.7109868936698
 30
0.0
 11
1047.762718237806
 21
197.7436837864811
 31
0.0
 12
1044.733997344584
 22
197.4664659101421
 32
0.0
 13
1044.733997344584
 23
197.4664659101421
 33
0.0
  0
POINT
  5
2148
330
D82
100
AcDbEntity
  8
Defpoints
 62
     0
100
AcDbPoint
 10
1044.733997344584
 20
197.4664659101421
 30
0.0
  0
POINT
  5
2149
330
D82
100
AcDbEntity
  8
Defpoints
 62
     0
100
AcDbPoint
 10
1000.238054413902
 20
185.7998013178296
 30
0.0
  0
ENDBLK
  5
D8D
330
D82
100
AcDbEntity
  8
0
100
AcDbBlockEnd
  0
BLOCK
  5
DA4
330
D9A
100
AcDbEntity
  8
0
100
AcDbBlockBegin
  2
*D8
 70
     1
 10
0.0
 20
0.0
 30
0.0
  3
*D8
  1

  0
LINE
  5
25F0
330
D9A
100
AcDbEntity
  8
0
 62
     0
370
    -2
100
AcDbLine
 10
1081.85758082698
 20
187.6331336139858
 30
0.0
 11
1071.324959550207
 21
187.6331336139858
 31
0.0
  0
LINE
  5
25F1
330
D9A
100
AcDbEntity
  8
0
 62
     0
370
    -2
100
AcDbLine
 10
1081.85758082698
 20
168.6331336139858
 30
0.0
 11
1071.324959550207
 21
168.6331336139858
 31
0.0
  0
LINE
  5
25F2
330
D9A
100
AcDbEntity
  8
0
 62
     0
370
    -2
100
AcDbLine
 10
1072.574959550207
 20
184.6331336139858
 30
0.0
 11
1072.574959550207
 21
171.6331336139858
 31
0.0
  0
SOLID
  5
25F3
330
D9A
100
AcDbEntity
  8
0
 62
     0
100
AcDbTrace
 10
1072.074959550207
 20
184.6331336139858
 30
0.0
 11
1073.074959550207
 21
184.6331336139858
 31
0.0
 12
1072.574959550207
 22
187.6331336139858
 32
0.0
 13
1072.574959550207
 23
187.6331336139858
 33
0.0
  0
SOLID
  5
25F4
330
D9A
100
AcDbEntity
  8
0
 62
     0
100
AcDbTrace
 10
1072.074959550207
 20
171.6331336139858
 30
0.0
 11
1073.074959550207
 21
171.6331336139858
 31
0.0
 12
1072.574959550207
 22
168.6331336139858
 32
0.0
 13
1072.574959550207
 23
168.6331336139858
 33
0.0
  0
MTEXT
  5
25F5
330
D9A
100
AcDbEntity
  8
0
 62
     0
100
AcDbMText
 10
1070.418240587042
 20
178.133133613986
 30
0.0
 40
3.0
 41
0.0
 46
0.0
 71
     5
 72
     1
  1
19
  7
Arial
 11
0.0000000000000001
 21
1.0
 31
0.0
 73
     1
 44
1.0
  0
POINT
  5
25F6
330
D9A
100
AcDbEntity
  8
Defpoints
 62
     0
100
AcDbPoint
 10
1088.85758082698
 20
187.6331336139858
 30
0.0
  0
POINT
  5
25F7
330
D9A
100
AcDbEntity
  8
Defpoints
 62
     0
100
AcDbPoint
 10
1088.85758082698
 20
168.6331336139858
 30
0.0
  0
POINT
  5
25F8
330
D9A
100
AcDbEntity
  8
Defpoints
 62
     0
100
AcDbPoint
 10
1072.574959550207
 20
168.6331336139858
 30
0.0
  0
ENDBLK
  5
DA5
330
D9A
100
AcDbEntity
  8
0
100
AcDbBlockEnd
  0
BLOCK
  5
DC8
330
DBE
100
AcDbEntity
  8
0
100
AcDbBlockBegin
  2
*D9
 70
     1
 10
0.0
 20
0.0
 30
0.0
  3
*D9
  1

  0
LINE
  5
25F9
330
DBE
100
AcDbEntity
  8
0
 62
     0
370
    -2
100
AcDbLine
 10
1005.547997367333
 20
428.9535070980844
 30
0.0
 11
993.4071707882393
 21
428.9535070980844
 31
0.0
  0
LINE
  5
25FA
330
DBE
100
AcDbEntity
  8
0
 62
     0
370
    -2
100
AcDbLine
 10
1005.547997367333
 20
336.9535070980844
 30
0.0
 11
993.4071707882393
 21
336.9535070980844
 31
0.0
  0
LINE
  5
25FB
330
DBE
100
AcDbEntity
  8
0
 62
     0
370
    -2
100
AcDbLine
 10
994.6571707882394
 20
425.9535070980843
 30
0.0
 11
994.6571707882394
 21
339.9535070980844
 31
0.0
  0
SOLID
  5
25FC
330
DBE
100
AcDbEntity
  8
0
 62
     0
100
AcDbTrace
 10
994.1571707882394
 20
425.9535070980843
 30
0.0
 11
995.1571707882393
 21
425.9535070980843
 31
0.0
 12
994.6571707882394
 22
428.9535070980844
 32
0.0
 13
994.6571707882394
 23
428.9535070980844
 33
0.0
  0
SOLID
  5
25FD
330
DBE
100
AcDbEntity
  8
0
 62
     0
100
AcDbTrace
 10
994.1571707882394
 20
339.9535070980844
 30
0.0
 11
995.1571707882393
 21
339.9535070980844
 31
0.0
 12
994.6571707882394
 22
336.9535070980844
 32
0.0
 13
994.6571707882394
 23
336.9535070980844
 33
0.0
  0
MTEXT
  5
25FE
330
DBE
100
AcDbEntity
  8
0
 62
     0
100
AcDbMText
 10
992.5004518250743
 20
382.9535070980846
 30
0.0
 40
3.0
 41
0.0
 46
0.0
 71
     5
 72
     1
  1
92
  7
Arial
 11
0.0000000000000001
 21
1.0
 31
0.0
 73
     1
 44
1.0
  0
POINT
  5
25FF
330
DBE
100
AcDbEntity
  8
Defpoints
 62
     0
100
AcDbPoint
 10
1012.547997367333
 20
428.9535070980844
 30
0.0
  0
POINT
  5
2600
330
DBE
100
AcDbEntity
  8
Defpoints
 62
     0
100
AcDbPoint
 10
1012.547997367333
 20
336.9535070980844
 30
0.0
  0
POINT
  5
2601
330
DBE
100
AcDbEntity
  8
Defpoints
 62
     0
100
AcDbPoint
 10
994.6571707882394
 20
336.9535070980844
 30
0.0
  0
ENDBLK
  5
DC9
330
DBE
100
AcDbEntity
  8
0
100
AcDbBlockEnd
  0
BLOCK
  5
DE0
330
DD6
100
AcDbEntity
  8
0
100
AcDbBlockBegin
  2
*D10
 70
     1
 10
0.0
 20
0.0
 30
0.0
  3
*D10
  1

  0
LINE
  5
214A
330
DD6
100
AcDbEntity
  8
0
 62
     0
370
    -2
100
AcDbLine
 10
1098.173836364038
 20
431.6453135513324
 30
0.0
 11
1089.964934590504
 21
431.6453135513324
 31
0.0
  0
LINE
  5
214B
330
DD6
100
AcDbEntity
  8
0
 62
     0
370
    -2
100
AcDbLine
 10
1089.964934590504
 20
431.6453135513324
 30
0.0
 11
1085.51815291479
 21
429.0733448928071
 31
0.0
  0
LINE
  5
214C
330
DD6
100
AcDbEntity
  8
0
 62
     0
370
    -2
100
AcDbLine
 10
1067.339799594475
 20
418.5591891700766
 30
0.0
 11
1064.742891977288
 21
417.0571669239724
 31
0.0
  0
MTEXT
  5
214D
330
DD6
100
AcDbEntity
  8
0
 62
     0
100
AcDbMText
 10
1094.381885477272
 20
433.8859342880306
 30
0.0
 40
3.0
 41
0.0
 46
0.0
 71
     5
 72
     1
  1
∅15
  7
Arial
 73
     1
 44
1.0
  0
LINE
  5
214E
330
DD6
100
AcDbEntity
  8
0
 62
     0
370
    -2
100
AcDbLine
 10
1069.936707211663
 20
420.0612114161812
 30
0.0
 11
1082.921245297602
 21
427.5713226467026
 31
0.0
  0
SOLID
  5
214F
330
DD6
100
AcDbEntity
  8
0
 62
     0
100
AcDbTrace
 10
1067.089462553458
 20
418.9920071062748
 30
0.0
 11
1067.590136635493
 21
418.1263712338788
 31
0.0
 12
1069.936707211663
 22
420.0612114161812
 32
0.0
 13
1069.936707211663
 23
420.0612114161812
 33
0.0
  0
SOLID
  5
2150
330
DD6
100
AcDbEntity
  8
0
 62
     0
100
AcDbTrace
 10
1085.267815873772
 20
429.5061628290048
 30
0.0
 11
1085.768489955808
 21
428.6405269566091
 31
0.0
 12
1082.921245297602
 22
427.5713226467026
 32
0.0
 13
1082.921245297602
 23
427.5713226467026
 33
0.0
  0
POINT
  5
2151
330
DD6
100
AcDbEntity
  8
Defpoints
 62
     0
100
AcDbPoint
 10
1082.921245297602
 20
427.5713226467026
 30
0.0
  0
POINT
  5
2152
330
DD6
100
AcDbEntity
  8
Defpoints
 62
     0
100
AcDbPoint
 10
1069.936707211663
 20
420.0612114161812
 30
0.0
  0
ENDBLK
  5
DE1
330
DD6
100
AcDbEntity
  8
0
100
AcDbBlockEnd
  0
BLOCK
  5
E0D
330
E02
100
AcDbEntity
  8
0
100
AcDbBlockBegin
  2
*D11
 70
     1
 10
0.0
 20
0.0
 30
0.0
  3
*D11
  1

  0
LINE
  5
2602
330
E02
100
AcDbEntity
  8
0
 62
     0
370
    -2
100
AcDbLine
 10
978.440136292086
 20
489.2155826424454
 30
0.0
 11
966.6649090361351
 21
489.2155826424454
 31
0.0
  0
LINE
  5
2603
330
E02
100
AcDbEntity
  8
0
 62
     0
370
    -2
100
AcDbLine
 10
979.9401362920859
 20
575.2155826424456
 30
0.0
 11
966.6649090361351
 21
575.2155826424456
 31
0.0
  0
LINE
  5
2604
330
E02
100
AcDbEntity
  8
0
 62
     0
370
    -2
100
AcDbLine
 10
967.9149090361352
 20
492.2155826424456
 30
0.0
 11
967.9149090361352
 21
572.2155826424454
 31
0.0
  0
SOLID
  5
2605
330
E02
100
AcDbEntity
  8
0
 62
     0
100
AcDbTrace
 10
967.4149090361352
 20
492.2155826424456
 30
0.0
 11
968.4149090361351
 21
492.2155826424456
 31
0.0
 12
967.9149090361352
 22
489.2155826424454
 32
0.0
 13
967.9149090361352
 23
489.2155826424454
 33
0.0
  0
SOLID
  5
2606
330
E02
100
AcDbEntity
  8
0
 62
     0
100
AcDbTrace
 10
967.4149090361352
 20
572.2155826424454
 30
0.0
 11
968.4149090361351
 21
572.2155826424454
 31
0.0
 12
967.9149090361352
 22
575.2155826424456
 32
0.0
 13
967.9149090361352
 23
575.2155826424456
 33
0.0
  0
MTEXT
  5
2607
330
E02
100
AcDbEntity
  8
0
 62
     0
100
AcDbMText
 10
965.7581900729701
 20
532.2155826424456
 30
0.0
 40
3.0
 41
0.0
 46
0.0
 71
     5
 72
     1
  1
86
  7
Arial
 11
0.0000000000000001
 21
1.0
 31
0.0
 73
     1
 44
1.0
  0
POINT
  5
2608
330
E02
100
AcDbEntity
  8
Defpoints
 62
     0
100
AcDbPoint
 10
985.440136292086
 20
489.2155826424454
 30
0.0
  0
POINT
  5
2609
330
E02
100
AcDbEntity
  8
Defpoints
 62
     0
100
AcDbPoint
 10
986.9401362920859
 20
575.2155826424456
 30
0.0
  0
POINT
  5
260A
330
E02
100
AcDbEntity
  8
Defpoints
 62
     0
100
AcDbPoint
 10
967.9149090361352
 20
575.2155826424456
 30
0.0
  0
ENDBLK
  5
E0E
330
E02
100
AcDbEntity
  8
0
100
AcDbBlockEnd
  0
BLOCK
  5
E32
330
E28
100
AcDbEntity
  8
0
100
AcDbBlockBegin
  2
*D12
 70
     1
 10
0.0
 20
0.0
 30
0.0
  3
*D12
  1

  0
LINE
  5
2153
330
E28
100
AcDbEntity
  8
0
 62
     0
370
    -2
100
AcDbLine
 10
1152.425048877274
 20
567.3595777260421
 30
0.0
 11
1144.232518181503
 21
567.3595777260422
 31
0.0
  0
LINE
  5
2154
330
E28
100
AcDbEntity
  8
0
 62
     0
370
    -2
100
AcDbLine
 10
1144.232518181503
 20
567.3595777260422
 30
0.0
 11
1134.474526912647
 21
563.979651925466
 31
0.0
  0
LINE
  5
2155
330
E28
100
AcDbEntity
  8
0
 62
     0
370
    -2
100
AcDbLine
 10
1082.503849298151
 20
545.9783000792821
 30
0.0
 11
1079.669085064633
 21
544.9964081603996
 31
0.0
  0
MTEXT
  5
2156
330
E28
100
AcDbEntity
  8
0
 62
     0
100
AcDbMText
 10
1148.641283529389
 20
569.6001984627407
 30
0.0
 40
3.0
 41
0.0
 46
0.0
 71
     5
 72
     1
  1
∅49
  7
Arial
 73
     1
 44
1.0
  0
LINE
  5
2157
330
E28
100
AcDbEntity
  8
0
 62
     0
370
    -2
100
AcDbLine
 10
1085.338613531669
 20
546.9601919981649
 30
0.0
 11
1131.639762679129
 21
562.9977600065832
 31
0.0
  0
SOLID
  5
2158
330
E28
100
AcDbEntity
  8
0
 62
     0
100
AcDbTrace
 10
1082.340200645004
 20
546.4507607848686
 30
0.0
 11
1082.667497951298
 21
545.5058393736959
 31
0.0
 12
1085.338613531669
 22
546.9601919981649
 32
0.0
 13
1085.338613531669
 23
546.9601919981649
 33
0.0
  0
SOLID
  5
2159
330
E28
100
AcDbEntity
  8
0
 62
     0
100
AcDbTrace
 10
1134.3108782595
 20
564.4521126310523
 30
0.0
 11
1134.638175565794
 21
563.5071912198795
 31
0.0
 12
1131.639762679129
 22
562.9977600065832
 32
0.0
 13
1131.639762679129
 23
562.9977600065832
 33
0.0
  0
POINT
  5
215A
330
E28
100
AcDbEntity
  8
Defpoints
 62
     0
100
AcDbPoint
 10
1131.639762679129
 20
562.9977600065832
 30
0.0
  0
POINT
  5
215B
330
E28
100
AcDbEntity
  8
Defpoints
 62
     0
100
AcDbPoint
 10
1085.338613531669
 20
546.9601919981649
 30
0.0
  0
ENDBLK
  5
E33
330
E28
100
AcDbEntity
  8
0
100
AcDbBlockEnd
  0
BLOCK
  5
E78
330
E6E
100
AcDbEntity
  8
0
100
AcDbBlockBegin
  2
*D13
 70
     1
 10
0.0
 20
0.0
 30
0.0
  3
*D13
  1

  0
LINE
  5
215C
330
E6E
100
AcDbEntity
  8
0
 62
     0
370
    -2
100
AcDbLine
 10
1076.322341086823
 20
-36.16392863001387
 30
0.0
 11
1068.11343931329
 21
-36.16392863001387
 31
0.0
  0
LINE
  5
215D
330
E6E
100
AcDbEntity
  8
0
 62
     0
370
    -2
100
AcDbLine
 10
1068.11343931329
 20
-36.16392863001387
 30
0.0
 11
1065.485118422935
 21
-37.61027896700915
 31
0.0
  0
LINE
  5
215E
330
E6E
100
AcDbEntity
  8
0
 62
     0
370
    -2
100
AcDbLine
 10
1020.803663286909
 20
-62.19823469592875
 30
0.0
 11
1018.175342396555
 21
-63.644585032924
 31
0.0
  0
MTEXT
  5
215F
330
E6E
100
AcDbEntity
  8
0
 62
     0
100
AcDbMText
 10
1072.530390200056
 20
-33.92330789331541
 30
0.0
 40
3.0
 41
0.0
 46
0.0
 71
     5
 72
     1
  1
∅45
  7
Arial
 73
     1
 44
1.0
  0
LINE
  5
2160
330
E6E
100
AcDbEntity
  8
0
 62
     0
370
    -2
100
AcDbLine
 10
1023.431984177264
 20
-60.75188435893347
 30
0.0
 11
1062.856797532581
 21
-39.05662930400445
 31
0.0
  0
SOLID
  5
2161
330
E6E
100
AcDbEntity
  8
0
 62
     0
100
AcDbTrace
 10
1020.56260489741
 20
-61.76018121420304
 30
0.0
 11
1021.044721676409
 21
-62.63628817765454
 31
0.0
 12
1023.431984177264
 22
-60.75188435893347
 32
0.0
 13
1023.431984177264
 23
-60.75188435893347
 33
0.0
  0
SOLID
  5
2162
330
E6E
100
AcDbEntity
  8
0
 62
     0
100
AcDbTrace
 10
1065.244060033436
 20
-37.17222548528344
 30
0.0
 11
1065.726176812434
 21
-38.04833244873492
 31
0.0
 12
1062.856797532581
 22
-39.05662930400445
 32
0.0
 13
1062.856797532581
 23
-39.05662930400445
 33
0.0
  0
POINT
  5
2163
330
E6E
100
AcDbEntity
  8
Defpoints
 62
     0
100
AcDbPoint
 10
1062.856797532581
 20
-39.05662930400445
 30
0.0
  0
POINT
  5
2164
330
E6E
100
AcDbEntity
  8
Defpoints
 62
     0
100
AcDbPoint
 10
1023.431984177264
 20
-60.75188435893347
 30
0.0
  0
ENDBLK
  5
E79
330
E6E
100
AcDbEntity
  8
0
100
AcDbBlockEnd
  0
BLOCK
  5
E91
330
E86
100
AcDbEntity
  8
0
100
AcDbBlockBegin
  2
*D14
 70
     1
 10
0.0
 20
0.0
 30
0.0
  3
*D14
  1

  0
LINE
  5
260B
330
E86
100
AcDbEntity
  8
0
 62
     0
370
    -2
100
AcDbLine
 10
1147.479259148612
 20
-103.4602375759916
 30
0.0
 11
1158.468657248013
 21
-103.4602375759916
 31
0.0
  0
LINE
  5
260C
330
E86
100
AcDbEntity
  8
0
 62
     0
370
    -2
100
AcDbLine
 10
1147.479259148612
 20
-129.9602375759915
 30
0.0
 11
1158.468657248013
 21
-129.9602375759915
 31
0.0
  0
LINE
  5
260D
330
E86
100
AcDbEntity
  8
0
 62
     0
370
    -2
100
AcDbLine
 10
1157.218657248013
 20
-106.4602375759916
 30
0.0
 11
1157.218657248013
 21
-126.9602375759916
 31
0.0
  0
SOLID
  5
260E
330
E86
100
AcDbEntity
  8
0
 62
     0
100
AcDbTrace
 10
1156.718657248013
 20
-106.4602375759916
 30
0.0
 11
1157.718657248013
 21
-106.4602375759916
 31
0.0
 12
1157.218657248013
 22
-103.4602375759916
 32
0.0
 13
1157.218657248013
 23
-103.4602375759916
 33
0.0
  0
SOLID
  5
260F
330
E86
100
AcDbEntity
  8
0
 62
     0
100
AcDbTrace
 10
1156.718657248013
 20
-126.9602375759916
 30
0.0
 11
1157.718657248013
 21
-126.9602375759916
 31
0.0
 12
1157.218657248013
 22
-129.9602375759915
 32
0.0
 13
1157.218657248013
 23
-129.9602375759915
 33
0.0
  0
MTEXT
  5
2610
330
E86
100
AcDbEntity
  8
0
 62
     0
100
AcDbMText
 10
1155.087518093852
 20
-116.7102375759914
 30
0.0
 40
3.0
 41
0.0
 46
0.0
 71
     5
 72
     1
  1
27
  7
Arial
 11
0.0000000000000001
 21
1.0
 31
0.0
 73
     1
 44
1.0
  0
POINT
  5
2611
330
E86
100
AcDbEntity
  8
Defpoints
 62
     0
100
AcDbPoint
 10
1140.479259148612
 20
-103.4602375759916
 30
0.0
  0
POINT
  5
2612
330
E86
100
AcDbEntity
  8
Defpoints
 62
     0
100
AcDbPoint
 10
1140.479259148612
 20
-129.9602375759915
 30
0.0
  0
POINT
  5
2613
330
E86
100
AcDbEntity
  8
Defpoints
 62
     0
100
AcDbPoint
 10
1157.218657248013
 20
-129.9602375759915
 30
0.0
  0
ENDBLK
  5
E92
330
E86
100
AcDbEntity
  8
0
100
AcDbBlockEnd
  0
BLOCK
  5
FDD
330
FD3
100
AcDbEntity
  8
0
100
AcDbBlockBegin
  2
*D15
 70
     1
 10
0.0
 20
0.0
 30
0.0
  3
*D15
  1

  0
LINE
  5
2165
330
FD3
100
AcDbEntity
  8
0
 62
     0
370
    -2
100
AcDbLine
 10
4303.22496409448
 20
580.6575043320671
 30
0.0
 11
4295.016062320947
 21
580.6575043320674
 31
0.0
  0
LINE
  5
2166
330
FD3
100
AcDbEntity
  8
0
 62
     0
370
    -2
100
AcDbLine
 10
4295.016062320947
 20
580.6575043320674
 30
0.0
 11
4292.234498334196
 21
579.5337153004388
 31
0.0
  0
LINE
  5
2167
330
FD3
100
AcDbEntity
  8
0
 62
     0
370
    -2
100
AcDbLine
 10
4263.491670471101
 20
567.9212286402762
 30
0.0
 11
4260.710106484348
 21
566.7974396086475
 31
0.0
  0
MTEXT
  5
2168
330
FD3
100
AcDbEntity
  8
0
 62
     0
100
AcDbMText
 10
4299.433013207713
 20
582.8981250687657
 30
0.0
 40
3.0
 41
0.0
 46
0.0
 71
     5
 72
     1
  1
∅25
  7
Arial
 73
     1
 44
1.0
  0
LINE
  5
2169
330
FD3
100
AcDbEntity
  8
0
 62
     0
370
    -2
100
AcDbLine
 10
4266.273234457853
 20
569.0450176719049
 30
0.0
 11
4289.452934347445
 21
578.40992626881
 31
0.0
  0
SOLID
  5
216A
330
FD3
100
AcDbEntity
  8
0
 62
     0
100
AcDbTrace
 10
4263.304372299162
 20
568.3848226380681
 30
0.0
 11
4263.67896864304
 21
567.4576346424843
 31
0.0
 12
4266.273234457853
 22
569.0450176719049
 32
0.0
 13
4266.273234457853
 23
569.0450176719049
 33
0.0
  0
SOLID
  5
216B
330
FD3
100
AcDbEntity
  8
0
 62
     0
100
AcDbTrace
 10
4292.047200162258
 20
579.9973092982307
 30
0.0
 11
4292.421796506134
 21
579.070121302647
 31
0.0
 12
4289.452934347445
 22
578.40992626881
 32
0.0
 13
4289.452934347445
 23
578.40992626881
 33
0.0
  0
POINT
  5
216C
330
FD3
100
AcDbEntity
  8
Defpoints
 62
     0
100
AcDbPoint
 10
4289.452934347445
 20
578.40992626881
 30
0.0
  0
POINT
  5
216D
330
FD3
100
AcDbEntity
  8
Defpoints
 62
     0
100
AcDbPoint
 10
4266.273234457853
 20
569.0450176719049
 30
0.0
  0
ENDBLK
  5
FDE
330
FD3
100
AcDbEntity
  8
0
100
AcDbBlockEnd
  0
BLOCK
  5
FF5
330
FEB
100
AcDbEntity
  8
0
100
AcDbBlockBegin
  2
*D16
 70
     1
 10
0.0
 20
0.0
 30
0.0
  3
*D16
  1

  0
LINE
  5
2614
330
FEB
100
AcDbEntity
  8
0
 62
     0
370
    -2
100
AcDbLine
 10
4340.11057733529
 20
436.232809016008
 30
0.0
 11
4368.85807026793
 21
436.232809016008
 31
0.0
  0
LINE
  5
2615
330
FEB
100
AcDbEntity
  8
0
 62
     0
370
    -2
100
AcDbLine
 10
4340.11057733529
 20
-563.7671909839919
 30
0.0
 11
4368.85807026793
 21
-563.7671909839919
 31
0.0
  0
LINE
  5
2616
330
FEB
100
AcDbEntity
  8
0
 62
     0
370
    -2
100
AcDbLine
 10
4367.608070267929
 20
433.2328090160081
 30
0.0
 11
4367.608070267929
 21
-560.767190983992
 31
0.0
  0
SOLID
  5
2617
330
FEB
100
AcDbEntity
  8
0
 62
     0
100
AcDbTrace
 10
4367.108070267931
 20
433.2328090160081
 30
0.0
 11
4368.10807026793
 21
433.2328090160081
 31
0.0
 12
4367.608070267929
 22
436.232809016008
 32
0.0
 13
4367.608070267929
 23
436.232809016008
 33
0.0
  0
SOLID
  5
2618
330
FEB
100
AcDbEntity
  8
0
 62
     0
100
AcDbTrace
 10
4367.108070267931
 20
-560.767190983992
 30
0.0
 11
4368.10807026793
 21
-560.767190983992
 31
0.0
 12
4367.608070267929
 22
-563.7671909839919
 32
0.0
 13
4367.608070267929
 23
-563.7671909839919
 33
0.0
  0
MTEXT
  5
2619
330
FEB
100
AcDbEntity
  8
0
 62
     0
100
AcDbMText
 10
4365.451351304765
 20
-63.76719098399122
 30
0.0
 40
3.0
 41
0.0
 46
0.0
 71
     5
 72
     1
  1
1000
  7
Arial
 11
0.0000000000000001
 21
1.0
 31
0.0
 73
     1
 44
1.0
  0
POINT
  5
261A
330
FEB
100
AcDbEntity
  8
Defpoints
 62
     0
100
AcDbPoint
 10
4333.11057733529
 20
436.232809016008
 30
0.0
  0
POINT
  5
261B
330
FEB
100
AcDbEntity
  8
Defpoints
 62
     0
100
AcDbPoint
 10
4333.11057733529
 20
-563.7671909839919
 30
0.0
  0
POINT
  5
261C
330
FEB
100
AcDbEntity
  8
Defpoints
 62
     0
100
AcDbPoint
 10
4367.608070267929
 20
-563.7671909839919
 30
0.0
  0
ENDBLK
  5
FF6
330
FEB
100
AcDbEntity
  8
0
100
AcDbBlockEnd
  0
BLOCK
  5
1029
330
101F
100
AcDbEntity
  8
0
100
AcDbBlockBegin
  2
*D17
 70
     1
 10
0.0
 20
0.0
 30
0.0
  3
*D17
  1

  0
LINE
  5
261D
330
101F
100
AcDbEntity
  8
0
 62
     0
370
    -2
100
AcDbLine
 10
4142.863084402647
 20
-614.0330101996918
 30
0.0
 11
4142.863084402647
 21
-643.2988294153918
 31
0.0
  0
LINE
  5
261E
330
101F
100
AcDbEntity
  8
0
 62
     0
370
    -2
100
AcDbLine
 10
4277.863084402649
 20
-614.0330101996918
 30
0.0
 11
4277.863084402649
 21
-643.2988294153918
 31
0.0
  0
LINE
  5
261F
330
101F
100
AcDbEntity
  8
0
 62
     0
370
    -2
100
AcDbLine
 10
4145.863084402647
 20
-642.0488294153918
 30
0.0
 11
4274.863084402649
 21
-642.0488294153918
 31
0.0
  0
SOLID
  5
2620
330
101F
100
AcDbEntity
  8
0
 62
     0
100
AcDbTrace
 10
4145.863084402647
 20
-641.5488294153918
 30
0.0
 11
4145.863084402647
 21
-642.548829415392
 31
0.0
 12
4142.863084402647
 22
-642.0488294153918
 32
0.0
 13
4142.863084402647
 23
-642.0488294153918
 33
0.0
  0
SOLID
  5
2621
330
101F
100
AcDbEntity
  8
0
 62
     0
100
AcDbTrace
 10
4274.863084402649
 20
-641.5488294153918
 30
0.0
 11
4274.863084402649
 21
-642.548829415392
 31
0.0
 12
4277.863084402649
 22
-642.0488294153918
 32
0.0
 13
4277.863084402649
 23
-642.0488294153918
 33
0.0
  0
MTEXT
  5
2622
330
101F
100
AcDbEntity
  8
0
 62
     0
100
AcDbMText
 10
4210.363084402647
 20
-639.8910872598666
 30
0.0
 40
3.0
 41
0.0
 46
0.0
 71
     5
 72
     1
  1
135
  7
Arial
 73
     1
 44
1.0
  0
POINT
  5
2623
330
101F
100
AcDbEntity
  8
Defpoints
 62
     0
100
AcDbPoint
 10
4142.863084402647
 20
-607.0330101996918
 30
0.0
  0
POINT
  5
2624
330
101F
100
AcDbEntity
  8
Defpoints
 62
     0
100
AcDbPoint
 10
4277.863084402649
 20
-607.0330101996918
 30
0.0
  0
POINT
  5
2625
330
101F
100
AcDbEntity
  8
Defpoints
 62
     0
100
AcDbPoint
 10
4277.863084402649
 20
-642.0488294153918
 30
0.0
  0
ENDBLK
  5
102A
330
101F
100
AcDbEntity
  8
0
100
AcDbBlockEnd
  0
BLOCK
  5
10D4
330
10CA
100
AcDbEntity
  8
0
100
AcDbBlockBegin
  2
*D18
 70
     1
 10
0.0
 20
0.0
 30
0.0
  3
*D18
  1

  0
LINE
  5
2626
330
10CA
100
AcDbEntity
  8
0
 62
     0
370
    -2
100
AcDbLine
 10
5377.920920396498
 20
436.232809016008
 30
0.0
 11
5406.668413329136
 21
436.232809016008
 31
0.0
  0
LINE
  5
2627
330
10CA
100
AcDbEntity
  8
0
 62
     0
370
    -2
100
AcDbLine
 10
5377.920920396498
 20
-563.7671909839919
 30
0.0
 11
5406.668413329136
 21
-563.7671909839919
 31
0.0
  0
LINE
  5
2628
330
10CA
100
AcDbEntity
  8
0
 62
     0
370
    -2
100
AcDbLine
 10
5405.418413329137
 20
433.2328090160081
 30
0.0
 11
5405.418413329137
 21
-560.767190983992
 31
0.0
  0
SOLID
  5
2629
330
10CA
100
AcDbEntity
  8
0
 62
     0
100
AcDbTrace
 10
5404.918413329135
 20
433.2328090160081
 30
0.0
 11
5405.918413329136
 21
433.2328090160081
 31
0.0
 12
5405.418413329137
 22
436.232809016008
 32
0.0
 13
5405.418413329137
 23
436.232809016008
 33
0.0
  0
SOLID
  5
262A
330
10CA
100
AcDbEntity
  8
0
 62
     0
100
AcDbTrace
 10
5404.918413329135
 20
-560.767190983992
 30
0.0
 11
5405.918413329136
 21
-560.767190983992
 31
0.0
 12
5405.418413329137
 22
-563.7671909839919
 32
0.0
 13
5405.418413329137
 23
-563.7671909839919
 33
0.0
  0
MTEXT
  5
262B
330
10CA
100
AcDbEntity
  8
0
 62
     0
100
AcDbMText
 10
5403.261694365973
 20
-63.76719098399107
 30
0.0
 40
3.0
 41
0.0
 46
0.0
 71
     5
 72
     1
  1
1000
  7
Arial
 11
0.0000000000000001
 21
1.0
 31
0.0
 73
     1
 44
1.0
  0
POINT
  5
262C
330
10CA
100
AcDbEntity
  8
Defpoints
 62
     0
100
AcDbPoint
 10
5370.920920396496
 20
436.232809016008
 30
0.0
  0
POINT
  5
262D
330
10CA
100
AcDbEntity
  8
Defpoints
 62
     0
100
AcDbPoint
 10
5370.920920396496
 20
-563.7671909839919
 30
0.0
  0
POINT
  5
262E
330
10CA
100
AcDbEntity
  8
Defpoints
 62
     0
100
AcDbPoint
 10
5405.418413329137
 20
-563.7671909839919
 30
0.0
  0
ENDBLK
  5
10D5
330
10CA
100
AcDbEntity
  8
0
100
AcDbBlockEnd
  0
BLOCK
  5
10E0
330
10D6
100
AcDbEntity
  8
0
100
AcDbBlockBegin
  2
*D19
 70
     1
 10
0.0
 20
0.0
 30
0.0
  3
*D19
  1

  0
LINE
  5
262F
330
10D6
100
AcDbEntity
  8
0
 62
     0
370
    -2
100
AcDbLine
 10
5180.673427463855
 20
-614.0330101996918
 30
0.0
 11
5180.673427463855
 21
-643.2988294153918
 31
0.0
  0
LINE
  5
2630
330
10D6
100
AcDbEntity
  8
0
 62
     0
370
    -2
100
AcDbLine
 10
5315.673427463855
 20
-614.0330101996918
 30
0.0
 11
5315.673427463855
 21
-643.2988294153918
 31
0.0
  0
LINE
  5
2631
330
10D6
100
AcDbEntity
  8
0
 62
     0
370
    -2
100
AcDbLine
 10
5183.673427463855
 20
-642.0488294153918
 30
0.0
 11
5312.673427463855
 21
-642.0488294153918
 31
0.0
  0
SOLID
  5
2632
330
10D6
100
AcDbEntity
  8
0
 62
     0
100
AcDbTrace
 10
5183.673427463855
 20
-641.5488294153918
 30
0.0
 11
5183.673427463855
 21
-642.548829415392
 31
0.0
 12
5180.673427463855
 22
-642.0488294153918
 32
0.0
 13
5180.673427463855
 23
-642.0488294153918
 33
0.0
  0
SOLID
  5
2633
330
10D6
100
AcDbEntity
  8
0
 62
     0
100
AcDbTrace
 10
5312.673427463855
 20
-641.5488294153918
 30
0.0
 11
5312.673427463855
 21
-642.548829415392
 31
0.0
 12
5315.673427463855
 22
-642.0488294153918
 32
0.0
 13
5315.673427463855
 23
-642.0488294153918
 33
0.0
  0
MTEXT
  5
2634
330
10D6
100
AcDbEntity
  8
0
 62
     0
100
AcDbMText
 10
5248.173427463854
 20
-639.8910872598666
 30
0.0
 40
3.0
 41
0.0
 46
0.0
 71
     5
 72
     1
  1
135
  7
Arial
 73
     1
 44
1.0
  0
POINT
  5
2635
330
10D6
100
AcDbEntity
  8
Defpoints
 62
     0
100
AcDbPoint
 10
5180.673427463855
 20
-607.0330101996918
 30
0.0
  0
POINT
  5
2636
330
10D6
100
AcDbEntity
  8
Defpoints
 62
     0
100
AcDbPoint
 10
5315.673427463855
 20
-607.0330101996918
 30
0.0
  0
POINT
  5
2637
330
10D6
100
AcDbEntity
  8
Defpoints
 62
     0
100
AcDbPoint
 10
5315.673427463855
 20
-642.0488294153918
 30
0.0
  0
ENDBLK
  5
10E1
330
10D6
100
AcDbEntity
  8
0
100
AcDbBlockEnd
  0
BLOCK
  5
10EC
330
10E2
100
AcDbEntity
  8
0
100
AcDbBlockBegin
  2
*D20
 70
     1
 10
0.0
 20
0.0
 30
0.0
  3
*D20
  1

  0
LINE
  5
216E
330
10E2
100
AcDbEntity
  8
0
 62
     0
370
    -2
100
AcDbLine
 10
5341.035307155685
 20
580.6575043320671
 30
0.0
 11
5332.826405382153
 21
580.6575043320673
 31
0.0
  0
LINE
  5
216F
330
10E2
100
AcDbEntity
  8
0
 62
     0
370
    -2
100
AcDbLine
 10
5332.826405382153
 20
580.6575043320673
 30
0.0
 11
5330.044841395402
 21
579.5337153004387
 31
0.0
  0
LINE
  5
2170
330
10E2
100
AcDbEntity
  8
0
 62
     0
370
    -2
100
AcDbLine
 10
5301.302013532306
 20
567.9212286402751
 30
0.0
 11
5298.520449545555
 21
566.7974396086464
 31
0.0
  0
MTEXT
  5
2171
330
10E2
100
AcDbEntity
  8
0
 62
     0
100
AcDbMText
 10
5337.24335626892
 20
582.8981250687657
 30
0.0
 40
3.0
 41
0.0
 46
0.0
 71
     5
 72
     1
  1
∅25
  7
Arial
 73
     1
 44
1.0
  0
LINE
  5
2172
330
10E2
100
AcDbEntity
  8
0
 62
     0
370
    -2
100
AcDbLine
 10
5304.083577519056
 20
569.0450176719037
 30
0.0
 11
5327.263277408651
 21
578.40992626881
 31
0.0
  0
SOLID
  5
2173
330
10E2
100
AcDbEntity
  8
0
 62
     0
100
AcDbTrace
 10
5301.114715360368
 20
568.3848226380671
 30
0.0
 11
5301.489311704244
 21
567.4576346424835
 31
0.0
 12
5304.083577519056
 22
569.0450176719037
 32
0.0
 13
5304.083577519056
 23
569.0450176719037
 33
0.0
  0
SOLID
  5
2174
330
10E2
100
AcDbEntity
  8
0
 62
     0
100
AcDbTrace
 10
5329.857543223464
 20
579.9973092982305
 30
0.0
 11
5330.23213956734
 21
579.070121302647
 31
0.0
 12
5327.263277408651
 22
578.40992626881
 32
0.0
 13
5327.263277408651
 23
578.40992626881
 33
0.0
  0
POINT
  5
2175
330
10E2
100
AcDbEntity
  8
Defpoints
 62
     0
100
AcDbPoint
 10
5327.263277408651
 20
578.40992626881
 30
0.0
  0
POINT
  5
2176
330
10E2
100
AcDbEntity
  8
Defpoints
 62
     0
100
AcDbPoint
 10
5304.083577519056
 20
569.0450176719037
 30
0.0
  0
ENDBLK
  5
10ED
330
10E2
100
AcDbEntity
  8
0
100
AcDbBlockEnd
  0
BLOCK
  5
1185
330
117B
100
AcDbEntity
  8
0
100
AcDbBlockBegin
  2
*D21
 70
     1
 10
0.0
 20
0.0
 30
0.0
  3
*D21
  1

  0
LINE
  5
2638
330
117B
100
AcDbEntity
  8
0
 62
     0
370
    -2
100
AcDbLine
 10
4317.148275086371
 20
-1165.651947987623
 30
0.0
 11
4345.895768019013
 21
-1165.651947987623
 31
0.0
  0
LINE
  5
2639
330
117B
100
AcDbEntity
  8
0
 62
     0
370
    -2
100
AcDbLine
 10
4317.148275086371
 20
-2165.651947987623
 30
0.0
 11
4345.895768019011
 21
-2165.651947987623
 31
0.0
  0
LINE
  5
263A
330
117B
100
AcDbEntity
  8
0
 62
     0
370
    -2
100
AcDbLine
 10
4344.645768019013
 20
-1168.651947987623
 30
0.0
 11
4344.645768019011
 21
-2162.651947987623
 31
0.0
  0
SOLID
  5
263B
330
117B
100
AcDbEntity
  8
0
 62
     0
100
AcDbTrace
 10
4344.145768019013
 20
-1168.651947987623
 30
0.0
 11
4345.145768019013
 21
-1168.651947987623
 31
0.0
 12
4344.645768019013
 22
-1165.651947987623
 32
0.0
 13
4344.645768019013
 23
-1165.651947987623
 33
0.0
  0
SOLID
  5
263C
330
117B
100
AcDbEntity
  8
0
 62
     0
100
AcDbTrace
 10
4344.145768019012
 20
-2162.651947987623
 30
0.0
 11
4345.145768019011
 21
-2162.651947987623
 31
0.0
 12
4344.645768019011
 22
-2165.651947987623
 32
0.0
 13
4344.645768019011
 23
-2165.651947987623
 33
0.0
  0
MTEXT
  5
263D
330
117B
100
AcDbEntity
  8
0
 62
     0
100
AcDbMText
 10
4342.489049055848
 20
-1665.651947987623
 30
0.0
 40
3.0
 41
0.0
 46
0.0
 71
     5
 72
     1
  1
1000
  7
Arial
 11
0.0000000000000001
 21
1.0
 31
0.0
 73
     1
 44
1.0
  0
POINT
  5
263E
330
117B
100
AcDbEntity
  8
Defpoints
 62
     0
100
AcDbPoint
 10
4310.148275086371
 20
-1165.651947987623
 30
0.0
  0
POINT
  5
263F
330
117B
100
AcDbEntity
  8
Defpoints
 62
     0
100
AcDbPoint
 10
4310.148275086371
 20
-2165.651947987623
 30
0.0
  0
POINT
  5
2640
330
117B
100
AcDbEntity
  8
Defpoints
 62
     0
100
AcDbPoint
 10
4344.645768019011
 20
-2165.651947987623
 30
0.0
  0
ENDBLK
  5
1186
330
117B
100
AcDbEntity
  8
0
100
AcDbBlockEnd
  0
BLOCK
  5
1191
330
1187
100
AcDbEntity
  8
0
100
AcDbBlockBegin
  2
*D22
 70
     1
 10
0.0
 20
0.0
 30
0.0
  3
*D22
  1

  0
LINE
  5
2641
330
1187
100
AcDbEntity
  8
0
 62
     0
370
    -2
100
AcDbLine
 10
4119.90078215373
 20
-2215.917767203324
 30
0.0
 11
4119.90078215373
 21
-2245.183586419023
 31
0.0
  0
LINE
  5
2642
330
1187
100
AcDbEntity
  8
0
 62
     0
370
    -2
100
AcDbLine
 10
4254.900782153731
 20
-2215.917767203324
 30
0.0
 11
4254.900782153731
 21
-2245.183586419023
 31
0.0
  0
LINE
  5
2643
330
1187
100
AcDbEntity
  8
0
 62
     0
370
    -2
100
AcDbLine
 10
4122.90078215373
 20
-2243.933586419023
 30
0.0
 11
4251.900782153731
 21
-2243.933586419023
 31
0.0
  0
SOLID
  5
2644
330
1187
100
AcDbEntity
  8
0
 62
     0
100
AcDbTrace
 10
4122.90078215373
 20
-2243.433586419024
 30
0.0
 11
4122.90078215373
 21
-2244.433586419023
 31
0.0
 12
4119.90078215373
 22
-2243.933586419023
 32
0.0
 13
4119.90078215373
 23
-2243.933586419023
 33
0.0
  0
SOLID
  5
2645
330
1187
100
AcDbEntity
  8
0
 62
     0
100
AcDbTrace
 10
4251.900782153731
 20
-2243.433586419024
 30
0.0
 11
4251.900782153731
 21
-2244.433586419023
 31
0.0
 12
4254.900782153731
 22
-2243.933586419023
 32
0.0
 13
4254.900782153731
 23
-2243.933586419023
 33
0.0
  0
MTEXT
  5
2646
330
1187
100
AcDbEntity
  8
0
 62
     0
100
AcDbMText
 10
4187.400782153729
 20
-2241.775844263498
 30
0.0
 40
3.0
 41
0.0
 46
0.0
 71
     5
 72
     1
  1
135
  7
Arial
 73
     1
 44
1.0
  0
POINT
  5
2647
330
1187
100
AcDbEntity
  8
Defpoints
 62
     0
100
AcDbPoint
 10
4119.90078215373
 20
-2208.917767203324
 30
0.0
  0
POINT
  5
2648
330
1187
100
AcDbEntity
  8
Defpoints
 62
     0
100
AcDbPoint
 10
4254.900782153731
 20
-2208.917767203324
 30
0.0
  0
POINT
  5
2649
330
1187
100
AcDbEntity
  8
Defpoints
 62
     0
100
AcDbPoint
 10
4254.900782153731
 20
-2243.933586419023
 30
0.0
  0
ENDBLK
  5
1192
330
1187
100
AcDbEntity
  8
0
100
AcDbBlockEnd
  0
BLOCK
  5
11BA
330
11B3
100
AcDbEntity
  8
0
100
AcDbBlockBegin
  2
*D23
 70
     1
 10
0.0
 20
0.0
 30
0.0
  3
*D23
  1

  0
LINE
  5
2177
330
11B3
100
AcDbEntity
  8
0
 62
     0
370
    -2
100
AcDbLine
 10
4282.932868380012
 20
-1020.241309641447
 30
0.0
 11
4271.621647370461
 21
-1020.241309641447
 31
0.0
  0
LINE
  5
2178
330
11B3
100
AcDbEntity
  8
0
 62
     0
370
    -2
100
AcDbLine
 10
4271.621647370461
 20
-1020.241309641447
 30
0.0
 11
4268.910155713697
 21
-1021.524981326608
 31
0.0
  0
MTEXT
  5
2179
330
11B3
100
AcDbEntity
  8
0
 62
     0
100
AcDbMText
 10
4277.589757875236
 20
-1017.813444702839
 30
0.0
 40
3.0
 41
0.0
 46
0.0
 71
     5
 72
     1
  1
R12,5
  7
Arial
 73
     1
 44
1.0
  0
LINE
  5
217A
330
11B3
100
AcDbEntity
  8
0
 62
     0
370
    -2
100
AcDbLine
 10
4254.900782153731
 20
-1028.157285033273
 30
0.0
 11
4266.198664056928
 21
-1022.808653011769
 31
0.0
  0
SOLID
  5
217B
330
11B3
100
AcDbEntity
  8
0
 62
     0
100
AcDbTrace
 10
4268.696210432834
 20
-1021.07306605048
 30
0.0
 11
4269.124100994555
 21
-1021.976896602736
 31
0.0
 12
4266.198664056928
 22
-1022.808653011769
 32
0.0
 13
4266.198664056928
 23
-1022.808653011769
 33
0.0
  0
POINT
  5
217C
330
11B3
100
AcDbEntity
  8
Defpoints
 62
     0
100
AcDbPoint
 10
4266.198664056928
 20
-1022.808653011769
 30
0.0
  0
POINT
  5
217D
330
11B3
100
AcDbEntity
  8
Defpoints
 62
     0
100
AcDbPoint
 10
4254.900782153731
 20
-1028.157285033273
 30
0.0
  0
ENDBLK
  5
11BB
330
11B3
100
AcDbEntity
  8
0
100
AcDbBlockEnd
  0
BLOCK
  5
12D1
330
12C8
100
AcDbEntity
  8
0
100
AcDbBlockBegin
  2
*D24
 70
     1
 10
0.0
 20
0.0
 30
0.0
  3
*D24
  1

  0
LINE
  5
217E
330
12C8
100
AcDbEntity
  8
0
 62
     0
370
    -2
100
AcDbLine
 10
2644.305779432222
 20
301.9273366515633
 30
0.0
 11
2652.479892665509
 21
301.9273366515631
 31
0.0
  0
LINE
  5
217F
330
12C8
100
AcDbEntity
  8
0
 62
     0
370
    -2
100
AcDbLine
 10
2652.479892665509
 20
301.9273366515631
 30
0.0
 11
2656.807177842532
 21
306.4109705902897
 31
0.0
  0
LINE
  5
2180
330
12C8
100
AcDbEntity
  8
0
 62
     0
370
    -2
100
AcDbLine
 10
2698.474173373012
 20
349.5834326866638
 30
0.0
 11
2700.557523149536
 21
351.7420557914827
 31
0.0
  0
MTEXT
  5
2181
330
12C8
100
AcDbEntity
  8
0
 62
     0
100
AcDbMText
 10
2648.080336048865
 20
304.1679573882618
 30
0.0
 40
3.0
 41
0.0
 46
0.0
 71
     5
 72
     1
  1
∅54
  7
Arial
 73
     1
 44
1.0
  0
LINE
  5
2182
330
12C8
100
AcDbEntity
  8
0
 62
     0
370
    -2
100
AcDbLine
 10
2696.390823596488
 20
347.4248095818452
 30
0.0
 11
2658.890527619056
 21
308.5695936951085
 31
0.0
  0
SOLID
  5
2183
330
12C8
100
AcDbEntity
  8
0
 62
     0
100
AcDbTrace
 10
2698.114402855542
 20
349.9306576494181
 30
0.0
 11
2698.833943890481
 21
349.2362077239099
 31
0.0
 12
2696.390823596488
 22
347.4248095818452
 32
0.0
 13
2696.390823596488
 23
347.4248095818452
 33
0.0
  0
SOLID
  5
2184
330
12C8
100
AcDbEntity
  8
0
 62
     0
100
AcDbTrace
 10
2656.447407325063
 20
306.7581955530436
 30
0.0
 11
2657.166948360002
 21
306.0637456275358
 31
0.0
 12
2658.890527619056
 22
308.5695936951085
 32
0.0
 13
2658.890527619056
 23
308.5695936951085
 33
0.0
  0
POINT
  5
2185
330
12C8
100
AcDbEntity
  8
Defpoints
 62
     0
100
AcDbPoint
 10
2658.890527619056
 20
308.5695936951085
 30
0.0
  0
POINT
  5
2186
330
12C8
100
AcDbEntity
  8
Defpoints
 62
     0
100
AcDbPoint
 10
2696.390823596488
 20
347.4248095818452
 30
0.0
  0
ENDBLK
  5
12D2
330
12C8
100
AcDbEntity
  8
0
100
AcDbBlockEnd
  0
BLOCK
  5
1324
330
131B
100
AcDbEntity
  8
0
100
AcDbBlockBegin
  2
*D25
 70
     1
 10
0.0
 20
0.0
 30
0.0
  3
*D25
  1

  0
LINE
  5
2187
330
131B
100
AcDbEntity
  8
0
 62
     0
370
    -2
100
AcDbLine
 10
2657.278271403439
 20
-101.1310123380181
 30
0.0
 11
2665.433967174246
 21
-101.1310123380181
 31
0.0
  0
LINE
  5
2188
330
131B
100
AcDbEntity
  8
0
 62
     0
370
    -2
100
AcDbLine
 10
2665.433967174246
 20
-101.1310123380181
 30
0.0
 11
2671.928989150279
 21
-96.08486622507077
 31
0.0
  0
LINE
  5
2189
330
131B
100
AcDbEntity
  8
0
 62
     0
370
    -2
100
AcDbLine
 10
2717.730335601266
 20
-60.50064692385331
 30
0.0
 11
2720.099370762524
 21
-58.66008385654914
 31
0.0
  0
MTEXT
  5
218A
330
131B
100
AcDbEntity
  8
0
 62
     0
100
AcDbMText
 10
2661.043619288841
 20
-98.89039160132004
 30
0.0
 40
3.0
 41
0.0
 46
0.0
 71
     5
 72
     1
  1
∅52
  7
Arial
 73
     1
 44
1.0
  0
LINE
  5
218B
330
131B
100
AcDbEntity
  8
0
 62
     0
370
    -2
100
AcDbLine
 10
2715.361300440009
 20
-62.34120999115749
 30
0.0
 11
2674.298024311537
 21
-94.24430315776659
 31
0.0
  0
SOLID
  5
218C
330
131B
100
AcDbEntity
  8
0
 62
     0
100
AcDbTrace
 10
2717.423575090049
 20
-60.10580773031051
 30
0.0
 11
2718.037096112484
 21
-60.89548611739632
 31
0.0
 12
2715.361300440009
 22
-62.34120999115749
 32
0.0
 13
2715.361300440009
 23
-62.34120999115749
 33
0.0
  0
SOLID
  5
218D
330
131B
100
AcDbEntity
  8
0
 62
     0
100
AcDbTrace
 10
2671.622228639062
 20
-95.69002703152795
 30
0.0
 11
2672.235749661497
 21
-96.47970541861376
 31
0.0
 12
2674.298024311537
 22
-94.24430315776659
 32
0.0
 13
2674.298024311537
 23
-94.24430315776659
 33
0.0
  0
POINT
  5
218E
330
131B
100
AcDbEntity
  8
Defpoints
 62
     0
100
AcDbPoint
 10
2674.298024311537
 20
-94.24430315776659
 30
0.0
  0
POINT
  5
218F
330
131B
100
AcDbEntity
  8
Defpoints
 62
     0
100
AcDbPoint
 10
2715.361300440009
 20
-62.34120999115749
 30
0.0
  0
ENDBLK
  5
1325
330
131B
100
AcDbEntity
  8
0
100
AcDbBlockEnd
  0
BLOCK
  5
13B1
330
13A7
100
AcDbEntity
  8
0
100
AcDbBlockBegin
  2
*D26
 70
     1
 10
0.0
 20
0.0
 30
0.0
  3
*D26
  1

  0
LINE
  5
2190
330
13A7
100
AcDbEntity
  8
0
 62
     0
370
    -2
100
AcDbLine
 10
2345.325488888205
 20
-99.29078996582394
 30
0.0
 11
2353.481184659012
 21
-99.2907899658237
 31
0.0
  0
LINE
  5
2191
330
13A7
100
AcDbEntity
  8
0
 62
     0
370
    -2
100
AcDbLine
 10
2353.481184659012
 20
-99.2907899658237
 30
0.0
 11
2358.403639414483
 21
-94.23047050048102
 31
0.0
  0
LINE
  5
2192
330
13A7
100
AcDbEntity
  8
0
 62
     0
370
    -2
100
AcDbLine
 10
2398.845587234083
 20
-52.65585256408986
 30
0.0
 11
2400.937412121303
 21
-50.50544129151784
 31
0.0
  0
MTEXT
  5
2193
330
13A7
100
AcDbEntity
  8
0
 62
     0
100
AcDbMText
 10
2349.090836773608
 20
-97.0501692291252
 30
0.0
 40
3.0
 41
0.0
 46
0.0
 71
     5
 72
     1
  1
∅52
  7
Arial
 73
     1
 44
1.0
  0
LINE
  5
2194
330
13A7
100
AcDbEntity
  8
0
 62
     0
370
    -2
100
AcDbLine
 10
2396.753762346861
 20
-54.80626383666185
 30
0.0
 11
2360.495464301704
 21
-92.08005922790905
 31
0.0
  0
SOLID
  5
2195
330
13A7
100
AcDbEntity
  8
0
 62
     0
100
AcDbTrace
 10
2398.487185355321
 20
-52.30721508288638
 30
0.0
 11
2399.203989112844
 21
-53.00449004529332
 31
0.0
 12
2396.753762346861
 22
-54.80626383666185
 32
0.0
 13
2396.753762346861
 23
-54.80626383666185
 33
0.0
  0
SOLID
  5
2196
330
13A7
100
AcDbEntity
  8
0
 62
     0
100
AcDbTrace
 10
2358.045237535722
 20
-93.88183301927755
 30
0.0
 11
2358.762041293246
 21
-94.57910798168448
 31
0.0
 12
2360.495464301704
 22
-92.08005922790905
 32
0.0
 13
2360.495464301704
 23
-92.08005922790905
 33
0.0
  0
POINT
  5
2197
330
13A7
100
AcDbEntity
  8
Defpoints
 62
     0
100
AcDbPoint
 10
2360.495464301704
 20
-92.08005922790905
 30
0.0
  0
POINT
  5
2198
330
13A7
100
AcDbEntity
  8
Defpoints
 62
     0
100
AcDbPoint
 10
2396.753762346861
 20
-54.80626383666185
 30
0.0
  0
ENDBLK
  5
13B2
330
13A7
100
AcDbEntity
  8
0
100
AcDbBlockEnd
  0
BLOCK
  5
13C9
330
13BF
100
AcDbEntity
  8
0
100
AcDbBlockBegin
  2
*D27
 70
     1
 10
0.0
 20
0.0
 30
0.0
  3
*D27
  1

  0
LINE
  5
2199
330
13BF
100
AcDbEntity
  8
0
 62
     0
370
    -2
100
AcDbLine
 10
2340.503920432615
 20
304.0825006375062
 30
0.0
 11
2348.678033665903
 21
304.0825006375062
 31
0.0
  0
LINE
  5
219A
330
13BF
100
AcDbEntity
  8
0
 62
     0
370
    -2
100
AcDbLine
 10
2348.678033665903
 20
304.0825006375062
 30
0.0
 11
2353.749427095705
 21
308.4416985664276
 31
0.0
  0
LINE
  5
219B
330
13BF
100
AcDbEntity
  8
0
 62
     0
370
    -2
100
AcDbLine
 10
2399.250297399429
 20
347.5527047105264
 30
0.0
 11
2401.525340914616
 21
349.5082550177313
 31
0.0
  0
MTEXT
  5
219C
330
13BF
100
AcDbEntity
  8
0
 62
     0
100
AcDbMText
 10
2344.278477049258
 20
306.3231213742044
 30
0.0
 40
3.0
 41
0.0
 46
0.0
 71
     5
 72
     1
  1
∅54
  7
Arial
 73
     1
 44
1.0
  0
LINE
  5
219D
330
13BF
100
AcDbEntity
  8
0
 62
     0
370
    -2
100
AcDbLine
 10
2396.975253884243
 20
345.5971544033216
 30
0.0
 11
2356.024470610892
 21
310.3972488736325
 31
0.0
  0
SOLID
  5
219E
330
13BF
100
AcDbEntity
  8
0
 62
     0
100
AcDbTrace
 10
2398.924372348228
 20
347.9318786297241
 30
0.0
 11
2399.57622245063
 21
347.1735307913287
 31
0.0
 12
2396.975253884243
 22
345.5971544033216
 32
0.0
 13
2396.975253884243
 23
345.5971544033216
 33
0.0
  0
SOLID
  5
219F
330
13BF
100
AcDbEntity
  8
0
 62
     0
100
AcDbTrace
 10
2353.423502044504
 20
308.8208724856253
 30
0.0
 11
2354.075352146906
 21
308.0625246472299
 31
0.0
 12
2356.024470610892
 22
310.3972488736325
 32
0.0
 13
2356.024470610892
 23
310.3972488736325
 33
0.0
  0
POINT
  5
21A0
330
13BF
100
AcDbEntity
  8
Defpoints
 62
     0
100
AcDbPoint
 10
2356.024470610892
 20
310.3972488736325
 30
0.0
  0
POINT
  5
21A1
330
13BF
100
AcDbEntity
  8
Defpoints
 62
     0
100
AcDbPoint
 10
2396.975253884243
 20
345.5971544033216
 30
0.0
  0
ENDBLK
  5
13CA
330
13BF
100
AcDbEntity
  8
0
100
AcDbBlockEnd
  0
BLOCK
  5
13E1
330
13D7
100
AcDbEntity
  8
0
100
AcDbBlockBegin
  2
*D28
 70
     1
 10
0.0
 20
0.0
 30
0.0
  3
*D28
  1

  0
LINE
  5
264A
330
13D7
100
AcDbEntity
  8
0
 62
     0
370
    -2
100
AcDbLine
 10
2575.829662375772
 20
58.51283441562782
 30
0.0
 11
2575.829662375772
 21
67.87102744334834
 31
0.0
  0
LINE
  5
264B
330
13D7
100
AcDbEntity
  8
0
 62
     0
370
    -2
100
AcDbLine
 10
2694.829662375771
 20
58.51283441562782
 30
0.0
 11
2694.829662375771
 21
67.87102744334834
 31
0.0
  0
LINE
  5
264C
330
13D7
100
AcDbEntity
  8
0
 62
     0
370
    -2
100
AcDbLine
 10
2578.829662375772
 20
66.62102744334834
 30
0.0
 11
2691.829662375771
 21
66.62102744334834
 31
0.0
  0
SOLID
  5
264D
330
13D7
100
AcDbEntity
  8
0
 62
     0
100
AcDbTrace
 10
2578.829662375772
 20
67.12102744334834
 30
0.0
 11
2578.829662375772
 21
66.12102744334833
 31
0.0
 12
2575.829662375772
 22
66.62102744334834
 32
0.0
 13
2575.829662375772
 23
66.62102744334834
 33
0.0
  0
SOLID
  5
264E
330
13D7
100
AcDbEntity
  8
0
 62
     0
100
AcDbTrace
 10
2691.829662375771
 20
67.12102744334834
 30
0.0
 11
2691.829662375771
 21
66.12102744334833
 31
0.0
 12
2694.829662375771
 22
66.62102744334834
 32
0.0
 13
2694.829662375771
 23
66.62102744334834
 33
0.0
  0
MTEXT
  5
264F
330
13D7
100
AcDbEntity
  8
0
 62
     0
100
AcDbMText
 10
2635.329662375772
 20
68.77774640651343
 30
0.0
 40
3.0
 41
0.0
 46
0.0
 71
     5
 72
     1
  1
119
  7
Arial
 73
     1
 44
1.0
  0
POINT
  5
2650
330
13D7
100
AcDbEntity
  8
Defpoints
 62
     0
100
AcDbPoint
 10
2575.829662375772
 20
51.51283441562782
 30
0.0
  0
POINT
  5
2651
330
13D7
100
AcDbEntity
  8
Defpoints
 62
     0
100
AcDbPoint
 10
2694.829662375771
 20
51.51283441562782
 30
0.0
  0
POINT
  5
2652
330
13D7
100
AcDbEntity
  8
Defpoints
 62
     0
100
AcDbPoint
 10
2694.829662375771
 20
66.62102744334834
 30
0.0
  0
ENDBLK
  5
13E2
330
13D7
100
AcDbEntity
  8
0
100
AcDbBlockEnd
  0
BLOCK
  5
13F9
330
13EF
100
AcDbEntity
  8
0
100
AcDbBlockBegin
  2
*D29
 70
     1
 10
0.0
 20
0.0
 30
0.0
  3
*D29
  1

  0
LINE
  5
2653
330
13EF
100
AcDbEntity
  8
0
 62
     0
370
    -2
100
AcDbLine
 10
2251.624613324282
 20
83.48287492290863
 30
0.0
 11
2251.624613324282
 21
92.31268306660286
 31
0.0
  0
LINE
  5
2654
330
13EF
100
AcDbEntity
  8
0
 62
     0
370
    -2
100
AcDbLine
 10
2378.624613324282
 20
84.51998135077747
 30
0.0
 11
2378.624613324282
 21
92.31268306660286
 31
0.0
  0
LINE
  5
2655
330
13EF
100
AcDbEntity
  8
0
 62
     0
370
    -2
100
AcDbLine
 10
2254.624613324282
 20
91.06268306660286
 30
0.0
 11
2375.624613324282
 21
91.06268306660286
 31
0.0
  0
SOLID
  5
2656
330
13EF
100
AcDbEntity
  8
0
 62
     0
100
AcDbTrace
 10
2254.624613324282
 20
91.56268306660285
 30
0.0
 11
2254.624613324282
 21
90.56268306660284
 31
0.0
 12
2251.624613324282
 22
91.06268306660286
 32
0.0
 13
2251.624613324282
 23
91.06268306660286
 33
0.0
  0
SOLID
  5
2657
330
13EF
100
AcDbEntity
  8
0
 62
     0
100
AcDbTrace
 10
2375.624613324282
 20
91.56268306660285
 30
0.0
 11
2375.624613324282
 21
90.56268306660284
 31
0.0
 12
2378.624613324282
 22
91.06268306660286
 32
0.0
 13
2378.624613324282
 23
91.06268306660286
 33
0.0
  0
MTEXT
  5
2658
330
13EF
100
AcDbEntity
  8
0
 62
     0
100
AcDbMText
 10
2315.124613324282
 20
93.19382222076383
 30
0.0
 40
3.0
 41
0.0
 46
0.0
 71
     5
 72
     1
  1
127
  7
Arial
 73
     1
 44
1.0
  0
POINT
  5
2659
330
13EF
100
AcDbEntity
  8
Defpoints
 62
     0
100
AcDbPoint
 10
2251.624613324282
 20
76.48287492290866
 30
0.0
  0
POINT
  5
265A
330
13EF
100
AcDbEntity
  8
Defpoints
 62
     0
100
AcDbPoint
 10
2378.624613324282
 20
77.51998135077747
 30
0.0
  0
POINT
  5
265B
330
13EF
100
AcDbEntity
  8
Defpoints
 62
     0
100
AcDbPoint
 10
2378.624613324282
 20
91.06268306660286
 30
0.0
  0
ENDBLK
  5
13FA
330
13EF
100
AcDbEntity
  8
0
100
AcDbBlockEnd
  0
BLOCK
  5
1435
330
142B
100
AcDbEntity
  8
0
100
AcDbBlockBegin
  2
*D30
 70
     1
 10
0.0
 20
0.0
 30
0.0
  3
*D30
  1

  0
LINE
  5
265C
330
142B
100
AcDbEntity
  8
0
 62
     0
370
    -2
100
AcDbLine
 10
2556.140675607776
 20
464.6605157803624
 30
0.0
 11
2556.140675607776
 21
486.214262751591
 31
0.0
  0
LINE
  5
265D
330
142B
100
AcDbEntity
  8
0
 62
     0
370
    -2
100
AcDbLine
 10
2677.640675607773
 20
464.660515780362
 30
0.0
 11
2677.640675607773
 21
486.214262751591
 31
0.0
  0
LINE
  5
265E
330
142B
100
AcDbEntity
  8
0
 62
     0
370
    -2
100
AcDbLine
 10
2559.140675607776
 20
484.9642627515911
 30
0.0
 11
2674.640675607773
 21
484.9642627515911
 31
0.0
  0
SOLID
  5
265F
330
142B
100
AcDbEntity
  8
0
 62
     0
100
AcDbTrace
 10
2559.140675607776
 20
485.4642627515911
 30
0.0
 11
2559.140675607776
 21
484.464262751591
 31
0.0
 12
2556.140675607776
 22
484.9642627515911
 32
0.0
 13
2556.140675607776
 23
484.9642627515911
 33
0.0
  0
SOLID
  5
2660
330
142B
100
AcDbEntity
  8
0
 62
     0
100
AcDbTrace
 10
2674.640675607773
 20
485.4642627515911
 30
0.0
 11
2674.640675607773
 21
484.464262751591
 31
0.0
 12
2677.640675607773
 22
484.9642627515911
 32
0.0
 13
2677.640675607773
 23
484.9642627515911
 33
0.0
  0
MTEXT
  5
2661
330
142B
100
AcDbEntity
  8
0
 62
     0
100
AcDbMText
 10
2616.890675607775
 20
487.0954019057521
 30
0.0
 40
3.0
 41
0.0
 46
0.0
 71
     5
 72
     1
  1
121
  7
Arial
 73
     1
 44
1.0
  0
POINT
  5
2662
330
142B
100
AcDbEntity
  8
Defpoints
 62
     0
100
AcDbPoint
 10
2556.140675607776
 20
457.6605157803624
 30
0.0
  0
POINT
  5
2663
330
142B
100
AcDbEntity
  8
Defpoints
 62
     0
100
AcDbPoint
 10
2677.640675607773
 20
457.6605157803619
 30
0.0
  0
POINT
  5
2664
330
142B
100
AcDbEntity
  8
Defpoints
 62
     0
100
AcDbPoint
 10
2677.640675607773
 20
484.9642627515911
 30
0.0
  0
ENDBLK
  5
1436
330
142B
100
AcDbEntity
  8
0
100
AcDbBlockEnd
  0
BLOCK
  5
145F
330
1455
100
AcDbEntity
  8
0
100
AcDbBlockBegin
  2
*D31
 70
     1
 10
0.0
 20
0.0
 30
0.0
  3
*D31
  1

  0
LINE
  5
2665
330
1455
100
AcDbEntity
  8
0
 62
     0
370
    -2
100
AcDbLine
 10
2245.499862247565
 20
463.0829990356742
 30
0.0
 11
2245.499862247565
 21
477.9517949966
 31
0.0
  0
LINE
  5
2666
330
1455
100
AcDbEntity
  8
0
 62
     0
370
    -2
100
AcDbLine
 10
2376.499862247568
 20
463.0829990356732
 30
0.0
 11
2376.499862247568
 21
477.9517949966
 31
0.0
  0
LINE
  5
2667
330
1455
100
AcDbEntity
  8
0
 62
     0
370
    -2
100
AcDbLine
 10
2248.499862247565
 20
476.7017949966
 30
0.0
 11
2373.499862247568
 21
476.7017949966
 31
0.0
  0
SOLID
  5
2668
330
1455
100
AcDbEntity
  8
0
 62
     0
100
AcDbTrace
 10
2248.499862247565
 20
477.2017949966
 30
0.0
 11
2248.499862247565
 21
476.2017949966
 31
0.0
 12
2245.499862247565
 22
476.7017949966
 32
0.0
 13
2245.499862247565
 23
476.7017949966
 33
0.0
  0
SOLID
  5
2669
330
1455
100
AcDbEntity
  8
0
 62
     0
100
AcDbTrace
 10
2373.499862247568
 20
477.2017949966
 30
0.0
 11
2373.499862247568
 21
476.2017949966
 31
0.0
 12
2376.499862247568
 22
476.7017949966
 32
0.0
 13
2376.499862247568
 23
476.7017949966
 33
0.0
  0
MTEXT
  5
266A
330
1455
100
AcDbEntity
  8
0
 62
     0
100
AcDbMText
 10
2310.999862247566
 20
478.8595371521251
 30
0.0
 40
3.0
 41
0.0
 46
0.0
 71
     5
 72
     1
  1
131
  7
Arial
 73
     1
 44
1.0
  0
POINT
  5
266B
330
1455
100
AcDbEntity
  8
Defpoints
 62
     0
100
AcDbPoint
 10
2245.499862247565
 20
456.0829990356743
 30
0.0
  0
POINT
  5
266C
330
1455
100
AcDbEntity
  8
Defpoints
 62
     0
100
AcDbPoint
 10
2376.499862247568
 20
456.0829990356733
 30
0.0
  0
POINT
  5
266D
330
1455
100
AcDbEntity
  8
Defpoints
 62
     0
100
AcDbPoint
 10
2376.499862247568
 20
476.7017949966
 30
0.0
  0
ENDBLK
  5
1460
330
1455
100
AcDbEntity
  8
0
100
AcDbBlockEnd
  0
BLOCK
  5
1776
330
176C
100
AcDbEntity
  8
0
100
AcDbBlockBegin
  2
*D32
 70
     1
 10
0.0
 20
0.0
 30
0.0
  3
*D32
  1

  0
LINE
  5
266E
330
176C
100
AcDbEntity
  8
0
 62
     0
370
    -2
100
AcDbLine
 10
5192.426053314076
 20
-2203.665590029947
 30
0.0
 11
5192.426053314076
 21
-2233.642517262997
 31
0.0
  0
LINE
  5
266F
330
176C
100
AcDbEntity
  8
0
 62
     0
370
    -2
100
AcDbLine
 10
5348.426053314077
 20
-2203.665590029947
 30
0.0
 11
5348.426053314077
 21
-2233.642517262997
 31
0.0
  0
LINE
  5
2670
330
176C
100
AcDbEntity
  8
0
 62
     0
370
    -2
100
AcDbLine
 10
5195.426053314076
 20
-2232.392517262997
 30
0.0
 11
5345.426053314077
 21
-2232.392517262997
 31
0.0
  0
SOLID
  5
2671
330
176C
100
AcDbEntity
  8
0
 62
     0
100
AcDbTrace
 10
5195.426053314076
 20
-2231.892517262997
 30
0.0
 11
5195.426053314076
 21
-2232.892517262997
 31
0.0
 12
5192.426053314076
 22
-2232.392517262997
 32
0.0
 13
5192.426053314076
 23
-2232.392517262997
 33
0.0
  0
SOLID
  5
2672
330
176C
100
AcDbEntity
  8
0
 62
     0
100
AcDbTrace
 10
5345.426053314077
 20
-2231.892517262997
 30
0.0
 11
5345.426053314077
 21
-2232.892517262997
 31
0.0
 12
5348.426053314077
 22
-2232.392517262997
 32
0.0
 13
5348.426053314077
 23
-2232.392517262997
 33
0.0
  0
MTEXT
  5
2673
330
176C
100
AcDbEntity
  8
0
 62
     0
100
AcDbMText
 10
5269.25883712239
 20
-2230.235798299832
 30
0.0
 40
3.0
 41
0.0
 46
0.0
 71
     5
 72
     1
  1
156
  7
Arial
 73
     1
 44
1.0
  0
POINT
  5
2674
330
176C
100
AcDbEntity
  8
Defpoints
 62
     0
100
AcDbPoint
 10
5192.426053314076
 20
-2196.665590029946
 30
0.0
  0
POINT
  5
2675
330
176C
100
AcDbEntity
  8
Defpoints
 62
     0
100
AcDbPoint
 10
5348.426053314077
 20
-2196.665590029946
 30
0.0
  0
POINT
  5
2676
330
176C
100
AcDbEntity
  8
Defpoints
 62
     0
100
AcDbPoint
 10
5348.426053314077
 20
-2232.392517262997
 30
0.0
  0
ENDBLK
  5
1777
330
176C
100
AcDbEntity
  8
0
100
AcDbBlockEnd
  0
BLOCK
  5
17B2
330
17A8
100
AcDbEntity
  8
0
100
AcDbBlockBegin
  2
*D33
 70
     1
 10
0.0
 20
0.0
 30
0.0
  3
*D33
  1

  0
LINE
  5
2677
330
17A8
100
AcDbEntity
  8
0
 62
     0
370
    -2
100
AcDbLine
 10
5410.751868858013
 20
-1152.688662796895
 30
0.0
 11
5437.077684401949
 21
-1152.688662796895
 31
0.0
  0
LINE
  5
2678
330
17A8
100
AcDbEntity
  8
0
 62
     0
370
    -2
100
AcDbLine
 10
5410.751868858013
 20
-2152.688662796895
 30
0.0
 11
5437.077684401948
 21
-2152.688662796895
 31
0.0
  0
LINE
  5
2679
330
17A8
100
AcDbEntity
  8
0
 62
     0
370
    -2
100
AcDbLine
 10
5435.827684401949
 20
-1155.688662796896
 30
0.0
 11
5435.827684401949
 21
-2149.688662796896
 31
0.0
  0
SOLID
  5
267A
330
17A8
100
AcDbEntity
  8
0
 62
     0
100
AcDbTrace
 10
5435.327684401949
 20
-1155.688662796896
 30
0.0
 11
5436.327684401949
 21
-1155.688662796896
 31
0.0
 12
5435.827684401949
 22
-1152.688662796895
 32
0.0
 13
5435.827684401949
 23
-1152.688662796895
 33
0.0
  0
SOLID
  5
267B
330
17A8
100
AcDbEntity
  8
0
 62
     0
100
AcDbTrace
 10
5435.327684401948
 20
-2149.688662796896
 30
0.0
 11
5436.327684401948
 21
-2149.688662796896
 31
0.0
 12
5435.827684401949
 22
-2152.688662796895
 32
0.0
 13
5435.827684401949
 23
-2152.688662796895
 33
0.0
  0
MTEXT
  5
267C
330
17A8
100
AcDbEntity
  8
0
 62
     0
100
AcDbMText
 10
5433.670965438786
 20
-1652.688662796894
 30
0.0
 40
3.0
 41
0.0
 46
0.0
 71
     5
 72
     1
  1
1000
  7
Arial
 11
0.0000000000000001
 21
1.0
 31
0.0
 73
     1
 44
1.0
  0
POINT
  5
267D
330
17A8
100
AcDbEntity
  8
Defpoints
 62
     0
100
AcDbPoint
 10
5403.751868858012
 20
-1152.688662796895
 30
0.0
  0
POINT
  5
267E
330
17A8
100
AcDbEntity
  8
Defpoints
 62
     0
100
AcDbPoint
 10
5403.751868858012
 20
-2152.688662796895
 30
0.0
  0
POINT
  5
267F
330
17A8
100
AcDbEntity
  8
Defpoints
 62
     0
100
AcDbPoint
 10
5435.827684401949
 20
-2152.688662796895
 30
0.0
  0
ENDBLK
  5
17B3
330
17A8
100
AcDbEntity
  8
0
100
AcDbBlockEnd
  0
BLOCK
  5
181D
330
1813
100
AcDbEntity
  8
0
100
AcDbBlockBegin
  2
*D34
 70
     1
 10
0.0
 20
0.0
 30
0.0
  3
*D34
  1

  0
LINE
  5
2680
330
1813
100
AcDbEntity
  8
0
 62
     0
370
    -2
100
AcDbLine
 10
2377.624613324284
 20
68.62783883626207
 30
0.0
 11
2419.243967249815
 21
68.62783883626206
 31
0.0
  0
LINE
  5
2681
330
1813
100
AcDbEntity
  8
0
 62
     0
370
    -2
100
AcDbLine
 10
2377.624613324284
 20
-1.372161163737702
 30
0.0
 11
2419.243967249815
 21
-1.372161163737714
 31
0.0
  0
LINE
  5
2682
330
1813
100
AcDbEntity
  8
0
 62
     0
370
    -2
100
AcDbLine
 10
2417.993967249815
 20
65.62783883626206
 30
0.0
 11
2417.993967249815
 21
1.627838836262284
 31
0.0
  0
SOLID
  5
2683
330
1813
100
AcDbEntity
  8
0
 62
     0
100
AcDbTrace
 10
2417.493967249815
 20
65.62783883626206
 30
0.0
 11
2418.493967249815
 21
65.62783883626206
 31
0.0
 12
2417.993967249815
 22
68.62783883626206
 32
0.0
 13
2417.993967249815
 23
68.62783883626206
 33
0.0
  0
SOLID
  5
2684
330
1813
100
AcDbEntity
  8
0
 62
     0
100
AcDbTrace
 10
2417.493967249815
 20
1.627838836262284
 30
0.0
 11
2418.493967249815
 21
1.627838836262284
 31
0.0
 12
2417.993967249815
 22
-1.372161163737714
 32
0.0
 13
2417.993967249815
 23
-1.372161163737714
 33
0.0
  0
MTEXT
  5
2685
330
1813
100
AcDbEntity
  8
0
 62
     0
100
AcDbMText
 10
2415.837248286651
 20
33.62783883626256
 30
0.0
 40
3.0
 41
0.0
 46
0.0
 71
     5
 72
     1
  1
70
  7
Arial
 11
0.0000000000000001
 21
1.0
 31
0.0
 73
     1
 44
1.0
  0
POINT
  5
2686
330
1813
100
AcDbEntity
  8
Defpoints
 62
     0
100
AcDbPoint
 10
2370.624613324284
 20
68.62783883626207
 30
0.0
  0
POINT
  5
2687
330
1813
100
AcDbEntity
  8
Defpoints
 62
     0
100
AcDbPoint
 10
2370.624613324284
 20
-1.3721611637377
 30
0.0
  0
POINT
  5
2688
330
1813
100
AcDbEntity
  8
Defpoints
 62
     0
100
AcDbPoint
 10
2417.993967249815
 20
-1.372161163737714
 30
0.0
  0
ENDBLK
  5
181E
330
1813
100
AcDbEntity
  8
0
100
AcDbBlockEnd
  0
BLOCK
  5
183E
330
1834
100
AcDbEntity
  8
0
100
AcDbBlockBegin
  2
*D35
 70
     1
 10
0.0
 20
0.0
 30
0.0
  3
*D35
  1

  0
LINE
  5
2689
330
1834
100
AcDbEntity
  8
0
 62
     0
370
    -2
100
AcDbLine
 10
2710.829662375772
 20
51.51283441562782
 30
0.0
 11
2745.691965210783
 21
51.51283441562782
 31
0.0
  0
LINE
  5
268A
330
1834
100
AcDbEntity
  8
0
 62
     0
370
    -2
100
AcDbLine
 10
2727.829662375772
 20
-5.487165584371951
 30
0.0
 11
2745.691965210783
 21
-5.487165584371958
 31
0.0
  0
LINE
  5
268B
330
1834
100
AcDbEntity
  8
0
 62
     0
370
    -2
100
AcDbLine
 10
2744.441965210782
 20
48.51283441562781
 30
0.0
 11
2744.441965210782
 21
-2.487165584371958
 31
0.0
  0
SOLID
  5
268C
330
1834
100
AcDbEntity
  8
0
 62
     0
100
AcDbTrace
 10
2743.941965210783
 20
48.51283441562781
 30
0.0
 11
2744.941965210783
 21
48.51283441562781
 31
0.0
 12
2744.441965210782
 22
51.51283441562782
 32
0.0
 13
2744.441965210782
 23
51.51283441562782
 33
0.0
  0
SOLID
  5
268D
330
1834
100
AcDbEntity
  8
0
 62
     0
100
AcDbTrace
 10
2743.941965210783
 20
-2.487165584371958
 30
0.0
 11
2744.941965210783
 21
-2.487165584371958
 31
0.0
 12
2744.441965210782
 22
-5.487165584371958
 32
0.0
 13
2744.441965210782
 23
-5.487165584371958
 33
0.0
  0
MTEXT
  5
268E
330
1834
100
AcDbEntity
  8
0
 62
     0
100
AcDbMText
 10
2742.291385401779
 20
23.01283441562837
 30
0.0
 40
3.0
 41
0.0
 46
0.0
 71
     5
 72
     1
  1
57
  7
Arial
 11
0.0000000000000001
 21
1.0
 31
0.0
 73
     1
 44
1.0
  0
POINT
  5
268F
330
1834
100
AcDbEntity
  8
Defpoints
 62
     0
100
AcDbPoint
 10
2703.829662375772
 20
51.51283441562782
 30
0.0
  0
POINT
  5
2690
330
1834
100
AcDbEntity
  8
Defpoints
 62
     0
100
AcDbPoint
 10
2720.829662375772
 20
-5.48716558437195
 30
0.0
  0
POINT
  5
2691
330
1834
100
AcDbEntity
  8
Defpoints
 62
     0
100
AcDbPoint
 10
2744.441965210782
 20
-5.487165584371958
 30
0.0
  0
ENDBLK
  5
183F
330
1834
100
AcDbEntity
  8
0
100
AcDbBlockEnd
  0
BLOCK
  5
186A
330
1860
100
AcDbEntity
  8
0
100
AcDbBlockBegin
  2
*D36
 70
     1
 10
0.0
 20
0.0
 30
0.0
  3
*D36
  1

  0
LINE
  5
2692
330
1860
100
AcDbEntity
  8
0
 62
     0
370
    -2
100
AcDbLine
 10
2322.499862247569
 20
457.1837247206889
 30
0.0
 11
2419.946558711181
 21
457.1837247206889
 31
0.0
  0
LINE
  5
2693
330
1860
100
AcDbEntity
  8
0
 62
     0
370
    -2
100
AcDbLine
 10
2410.499862247567
 20
386.1837247206893
 30
0.0
 11
2419.946558711181
 21
386.1837247206893
 31
0.0
  0
LINE
  5
2694
330
1860
100
AcDbEntity
  8
0
 62
     0
370
    -2
100
AcDbLine
 10
2418.696558711181
 20
454.1837247206891
 30
0.0
 11
2418.696558711181
 21
389.1837247206893
 31
0.0
  0
SOLID
  5
2695
330
1860
100
AcDbEntity
  8
0
 62
     0
100
AcDbTrace
 10
2418.196558711181
 20
454.1837247206891
 30
0.0
 11
2419.196558711181
 21
454.1837247206891
 31
0.0
 12
2418.696558711181
 22
457.1837247206889
 32
0.0
 13
2418.696558711181
 23
457.1837247206889
 33
0.0
  0
SOLID
  5
2696
330
1860
100
AcDbEntity
  8
0
 62
     0
100
AcDbTrace
 10
2418.196558711181
 20
389.1837247206893
 30
0.0
 11
2419.196558711181
 21
389.1837247206893
 31
0.0
 12
2418.696558711181
 22
386.1837247206893
 32
0.0
 13
2418.696558711181
 23
386.1837247206893
 33
0.0
  0
MTEXT
  5
2697
330
1860
100
AcDbEntity
  8
0
 62
     0
100
AcDbMText
 10
2416.56541955702
 20
421.6837247206894
 30
0.0
 40
3.0
 41
0.0
 46
0.0
 71
     5
 72
     1
  1
71
  7
Arial
 11
0.0000000000000001
 21
1.0
 31
0.0
 73
     1
 44
1.0
  0
POINT
  5
2698
330
1860
100
AcDbEntity
  8
Defpoints
 62
     0
100
AcDbPoint
 10
2315.499862247569
 20
457.1837247206889
 30
0.0
  0
POINT
  5
2699
330
1860
100
AcDbEntity
  8
Defpoints
 62
     0
100
AcDbPoint
 10
2403.499862247568
 20
386.1837247206893
 30
0.0
  0
POINT
  5
269A
330
1860
100
AcDbEntity
  8
Defpoints
 62
     0
100
AcDbPoint
 10
2418.696558711181
 20
386.1837247206893
 30
0.0
  0
ENDBLK
  5
186B
330
1860
100
AcDbEntity
  8
0
100
AcDbBlockEnd
  0
BLOCK
  5
1882
330
1878
100
AcDbEntity
  8
0
100
AcDbBlockBegin
  2
*D37
 70
     1
 10
0.0
 20
0.0
 30
0.0
  3
*D37
  1

  0
LINE
  5
269B
330
1878
100
AcDbEntity
  8
0
 62
     0
370
    -2
100
AcDbLine
 10
2693.64067560768
 20
455.1837247206957
 30
0.0
 11
2730.684734915222
 21
455.1837247206957
 31
0.0
  0
LINE
  5
269C
330
1878
100
AcDbEntity
  8
0
 62
     0
370
    -2
100
AcDbLine
 10
2711.640675607772
 20
386.1837247206893
 30
0.0
 11
2730.684734915222
 21
386.1837247206893
 31
0.0
  0
LINE
  5
269D
330
1878
100
AcDbEntity
  8
0
 62
     0
370
    -2
100
AcDbLine
 10
2729.434734915221
 20
452.1837247206957
 30
0.0
 11
2729.434734915221
 21
389.1837247206893
 31
0.0
  0
SOLID
  5
269E
330
1878
100
AcDbEntity
  8
0
 62
     0
100
AcDbTrace
 10
2728.934734915221
 20
452.1837247206957
 30
0.0
 11
2729.934734915222
 21
452.1837247206957
 31
0.0
 12
2729.434734915221
 22
455.1837247206957
 32
0.0
 13
2729.434734915221
 23
455.1837247206957
 33
0.0
  0
SOLID
  5
269F
330
1878
100
AcDbEntity
  8
0
 62
     0
100
AcDbTrace
 10
2728.934734915221
 20
389.1837247206893
 30
0.0
 11
2729.934734915222
 21
389.1837247206893
 31
0.0
 12
2729.434734915221
 22
386.1837247206893
 32
0.0
 13
2729.434734915221
 23
386.1837247206893
 33
0.0
  0
MTEXT
  5
26A0
330
1878
100
AcDbEntity
  8
0
 62
     0
100
AcDbMText
 10
2727.278015952056
 20
420.6837247206928
 30
0.0
 40
3.0
 41
0.0
 46
0.0
 71
     5
 72
     1
  1
69
  7
Arial
 11
0.0000000000000001
 21
1.0
 31
0.0
 73
     1
 44
1.0
  0
POINT
  5
26A1
330
1878
100
AcDbEntity
  8
Defpoints
 62
     0
100
AcDbPoint
 10
2686.64067560768
 20
455.1837247206957
 30
0.0
  0
POINT
  5
26A2
330
1878
100
AcDbEntity
  8
Defpoints
 62
     0
100
AcDbPoint
 10
2704.640675607772
 20
386.1837247206893
 30
0.0
  0
POINT
  5
26A3
330
1878
100
AcDbEntity
  8
Defpoints
 62
     0
100
AcDbPoint
 10
2729.434734915221
 20
386.1837247206893
 30
0.0
  0
ENDBLK
  5
1883
330
1878
100
AcDbEntity
  8
0
100
AcDbBlockEnd
  0
BLOCK
  5
194A
330
1941
100
AcDbEntity
  8
0
100
AcDbBlockBegin
  2
*D38
 70
     1
 10
0.0
 20
0.0
 30
0.0
  3
*D38
  1

  0
LINE
  5
2709
330
1941
100
AcDbEntity
  8
0
 62
     0
370
    -2
100
AcDbLine
 10
2323.029362947024
 20
-476.1662181428357
 30
0.0
 11
2341.069741149124
 21
-457.836996326906
 31
0.0
  0
LINE
  5
270A
330
1941
100
AcDbEntity
  8
0
 62
     0
370
    -2
100
AcDbLine
 10
2382.456405673856
 20
-415.7876919388756
 30
0.0
 11
2384.560812344606
 21
-413.6495917157556
 31
0.0
  0
MTEXT
  5
270B
330
1941
100
AcDbEntity
  8
0
 62
     0
100
AcDbMText
 10
2324.522930904461
 20
-471.4545526976741
 30
0.0
 40
3.0
 41
0.0
 46
0.0
 71
     5
 72
     1
  1
∅53
  7
Arial
 11
0.701468890249704
 21
0.7127000743733994
 31
0.0
 73
     1
 44
1.0
  0
LINE
  5
270C
330
1941
100
AcDbEntity
  8
0
 62
     0
370
    -2
100
AcDbLine
 10
2380.351999003107
 20
-417.925792161996
 30
0.0
 11
2343.174147819873
 21
-455.6988961037857
 31
0.0
  0
SOLID
  5
270D
330
1941
100
AcDbEntity
  8
0
 62
     0
100
AcDbTrace
 10
2382.100055636669
 20
-415.4369574937509
 30
0.0
 11
2382.812755711043
 21
-416.1384263840004
 31
0.0
 12
2380.351999003107
 22
-417.925792161996
 32
0.0
 13
2380.351999003107
 23
-417.925792161996
 33
0.0
  0
SOLID
  5
270E
330
1941
100
AcDbEntity
  8
0
 62
     0
100
AcDbTrace
 10
2340.713391111937
 20
-457.4862618817809
 30
0.0
 11
2341.426091186312
 21
-458.1877307720308
 31
0.0
 12
2343.174147819873
 22
-455.6988961037857
 32
0.0
 13
2343.174147819873
 23
-455.6988961037857
 33
0.0
  0
POINT
  5
270F
330
1941
100
AcDbEntity
  8
Defpoints
 62
     0
100
AcDbPoint
 10
2343.174147819873
 20
-455.6988961037857
 30
0.0
  0
POINT
  5
2710
330
1941
100
AcDbEntity
  8
Defpoints
 62
     0
100
AcDbPoint
 10
2380.351999003107
 20
-417.925792161996
 30
0.0
  0
ENDBLK
  5
194B
330
1941
100
AcDbEntity
  8
0
100
AcDbBlockEnd
  0
BLOCK
  5
21FE
330
21F4
100
AcDbEntity
  8
0
100
AcDbBlockBegin
  2
*D39
 70
     1
 10
0.0
 20
0.0
 30
0.0
  3
*D39
  1

  0
LINE
  5
26AC
330
21F4
100
AcDbEntity
  8
0
 62
     0
370
    -2
100
AcDbLine
 10
2250.76307341149
 20
-281.2229557965144
 30
0.0
 11
2250.76307341149
 21
-267.5600995472341
 31
0.0
  0
LINE
  5
26AD
330
21F4
100
AcDbEntity
  8
0
 62
     0
370
    -2
100
AcDbLine
 10
2361.76307341149
 20
-278.3078501736934
 30
0.0
 11
2361.76307341149
 21
-267.5600995472341
 31
0.0
  0
LINE
  5
26AE
330
21F4
100
AcDbEntity
  8
0
 62
     0
370
    -2
100
AcDbLine
 10
2253.76307341149
 20
-268.8100995472341
 30
0.0
 11
2358.76307341149
 21
-268.8100995472341
 31
0.0
  0
SOLID
  5
26AF
330
21F4
100
AcDbEntity
  8
0
 62
     0
100
AcDbTrace
 10
2253.76307341149
 20
-268.3100995472341
 30
0.0
 11
2253.76307341149
 21
-269.3100995472341
 31
0.0
 12
2250.76307341149
 22
-268.8100995472341
 32
0.0
 13
2250.76307341149
 23
-268.8100995472341
 33
0.0
  0
SOLID
  5
26B0
330
21F4
100
AcDbEntity
  8
0
 62
     0
100
AcDbTrace
 10
2358.76307341149
 20
-268.3100995472341
 30
0.0
 11
2358.76307341149
 21
-269.3100995472341
 31
0.0
 12
2361.76307341149
 22
-268.8100995472341
 32
0.0
 13
2361.76307341149
 23
-268.8100995472341
 33
0.0
  0
MTEXT
  5
26B1
330
21F4
100
AcDbEntity
  8
0
 62
     0
100
AcDbMText
 10
2306.26307341149
 20
-266.6789603930732
 30
0.0
 40
3.0
 41
0.0
 46
0.0
 71
     5
 72
     1
  1
111
  7
Arial
 73
     1
 44
1.0
  0
POINT
  5
26B2
330
21F4
100
AcDbEntity
  8
Defpoints
 62
     0
100
AcDbPoint
 10
2250.76307341149
 20
-288.2229557965144
 30
0.0
  0
POINT
  5
26B3
330
21F4
100
AcDbEntity
  8
Defpoints
 62
     0
100
AcDbPoint
 10
2361.76307341149
 20
-285.3078501736935
 30
0.0
  0
POINT
  5
26B4
330
21F4
100
AcDbEntity
  8
Defpoints
 62
     0
100
AcDbPoint
 10
2361.76307341149
 20
-268.8100995472341
 30
0.0
  0
ENDBLK
  5
21FF
330
21F4
100
AcDbEntity
  8
0
100
AcDbBlockEnd
  0
BLOCK
  5
223A
330
2230
100
AcDbEntity
  8
0
100
AcDbBlockBegin
  2
*D40
 70
     1
 10
0.0
 20
0.0
 30
0.0
  3
*D40
  1

  0
LINE
  5
26B5
330
2230
100
AcDbEntity
  8
0
 62
     0
370
    -2
100
AcDbLine
 10
2395.26307341149
 20
-348.222924004016
 30
0.0
 11
2406.201461379958
 21
-348.222924004016
 31
0.0
  0
LINE
  5
26B6
330
2230
100
AcDbEntity
  8
0
 62
     0
370
    -2
100
AcDbLine
 10
2395.125607960316
 20
-284.1874833302018
 30
0.0
 11
2406.201461379958
 21
-284.1874833302018
 31
0.0
  0
LINE
  5
26B7
330
2230
100
AcDbEntity
  8
0
 62
     0
370
    -2
100
AcDbLine
 10
2404.95146137996
 20
-345.222924004016
 30
0.0
 11
2404.95146137996
 21
-287.1874833302018
 31
0.0
  0
SOLID
  5
26B8
330
2230
100
AcDbEntity
  8
0
 62
     0
100
AcDbTrace
 10
2404.451461379959
 20
-345.222924004016
 30
0.0
 11
2405.451461379958
 21
-345.222924004016
 31
0.0
 12
2404.95146137996
 22
-348.222924004016
 32
0.0
 13
2404.95146137996
 23
-348.222924004016
 33
0.0
  0
SOLID
  5
26B9
330
2230
100
AcDbEntity
  8
0
 62
     0
100
AcDbTrace
 10
2404.451461379959
 20
-287.1874833302018
 30
0.0
 11
2405.451461379958
 21
-287.1874833302018
 31
0.0
 12
2404.95146137996
 22
-284.1874833302018
 32
0.0
 13
2404.95146137996
 23
-284.1874833302018
 33
0.0
  0
MTEXT
  5
26BA
330
2230
100
AcDbEntity
  8
0
 62
     0
100
AcDbMText
 10
2402.794742416793
 20
-316.2052036671085
 30
0.0
 40
3.0
 41
0.0
 46
0.0
 71
     5
 72
     1
  1
64
  7
Arial
 11
0.0000000000000001
 21
1.0
 31
0.0
 73
     1
 44
1.0
  0
POINT
  5
26BB
330
2230
100
AcDbEntity
  8
Defpoints
 62
     0
100
AcDbPoint
 10
2388.26307341149
 20
-348.222924004016
 30
0.0
  0
POINT
  5
26BC
330
2230
100
AcDbEntity
  8
Defpoints
 62
     0
100
AcDbPoint
 10
2388.125607960316
 20
-284.1874833302018
 30
0.0
  0
POINT
  5
26BD
330
2230
100
AcDbEntity
  8
Defpoints
 62
     0
100
AcDbPoint
 10
2404.95146137996
 20
-284.1874833302018
 30
0.0
  0
ENDBLK
  5
223B
330
2230
100
AcDbEntity
  8
0
100
AcDbBlockEnd
  0
BLOCK
  5
2264
330
225A
100
AcDbEntity
  8
0
100
AcDbBlockBegin
  2
*D41
 70
     1
 10
0.0
 20
0.0
 30
0.0
  3
*D41
  1

  0
LINE
  5
26BE
330
225A
100
AcDbEntity
  8
0
 62
     0
370
    -2
100
AcDbLine
 10
2471.76901089701
 20
-280.3853332316386
 30
0.0
 11
2471.76901089701
 21
-268.3814895661135
 31
0.0
  0
LINE
  5
26BF
330
225A
100
AcDbEntity
  8
0
 62
     0
370
    -2
100
AcDbLine
 10
2607.310139309801
 20
-280.3853332316387
 30
0.0
 11
2607.310139309801
 21
-268.3814895661135
 31
0.0
  0
LINE
  5
26C0
330
225A
100
AcDbEntity
  8
0
 62
     0
370
    -2
100
AcDbLine
 10
2474.76901089701
 20
-269.6314895661135
 30
0.0
 11
2604.310139309801
 21
-269.6314895661135
 31
0.0
  0
SOLID
  5
26C1
330
225A
100
AcDbEntity
  8
0
 62
     0
100
AcDbTrace
 10
2474.76901089701
 20
-269.1314895661135
 30
0.0
 11
2474.76901089701
 21
-270.1314895661135
 31
0.0
 12
2471.76901089701
 22
-269.6314895661135
 32
0.0
 13
2471.76901089701
 23
-269.6314895661135
 33
0.0
  0
SOLID
  5
26C2
330
225A
100
AcDbEntity
  8
0
 62
     0
100
AcDbTrace
 10
2604.310139309801
 20
-269.1314895661135
 30
0.0
 11
2604.310139309801
 21
-270.1314895661135
 31
0.0
 12
2607.310139309801
 22
-269.6314895661135
 32
0.0
 13
2607.310139309801
 23
-269.6314895661135
 33
0.0
  0
MTEXT
  5
26C3
330
225A
100
AcDbEntity
  8
0
 62
     0
100
AcDbMText
 10
2539.539575103406
 20
-267.4737474105882
 30
0.0
 40
3.0
 41
0.0
 46
0.0
 71
     5
 72
     1
  1
136
  7
Arial
 73
     1
 44
1.0
  0
POINT
  5
26C4
330
225A
100
AcDbEntity
  8
Defpoints
 62
     0
100
AcDbPoint
 10
2471.76901089701
 20
-287.3853332316386
 30
0.0
  0
POINT
  5
26C5
330
225A
100
AcDbEntity
  8
Defpoints
 62
     0
100
AcDbPoint
 10
2607.310139309801
 20
-287.3853332316386
 30
0.0
  0
POINT
  5
26C6
330
225A
100
AcDbEntity
  8
Defpoints
 62
     0
100
AcDbPoint
 10
2607.310139309801
 20
-269.6314895661135
 30
0.0
  0
ENDBLK
  5
2265
330
225A
100
AcDbEntity
  8
0
100
AcDbBlockEnd
  0
BLOCK
  5
22B8
330
22AE
100
AcDbEntity
  8
0
100
AcDbBlockBegin
  2
*D42
 70
     1
 10
0.0
 20
0.0
 30
0.0
  3
*D42
  1

  0
LINE
  5
274E
330
22AE
100
AcDbEntity
  8
0
 62
     0
370
    -2
100
AcDbLine
 10
2618.313280108972
 20
-287.51682011584
 30
0.0
 11
2633.515116180304
 21
-287.51682011584
 31
0.0
  0
LINE
  5
274F
330
22AE
100
AcDbEntity
  8
0
 62
     0
370
    -2
100
AcDbLine
 10
2621.269010897009
 20
-348.222924004016
 30
0.0
 11
2633.515116180304
 21
-348.222924004016
 31
0.0
  0
LINE
  5
2750
330
22AE
100
AcDbEntity
  8
0
 62
     0
370
    -2
100
AcDbLine
 10
2632.265116180303
 20
-290.5168201158399
 30
0.0
 11
2632.265116180303
 21
-345.222924004016
 31
0.0
  0
SOLID
  5
2751
330
22AE
100
AcDbEntity
  8
0
 62
     0
100
AcDbTrace
 10
2631.765116180302
 20
-290.5168201158399
 30
0.0
 11
2632.765116180304
 21
-290.5168201158399
 31
0.0
 12
2632.265116180303
 22
-287.51682011584
 32
0.0
 13
2632.265116180303
 23
-287.51682011584
 33
0.0
  0
SOLID
  5
2752
330
22AE
100
AcDbEntity
  8
0
 62
     0
100
AcDbTrace
 10
2631.765116180302
 20
-345.222924004016
 30
0.0
 11
2632.765116180304
 21
-345.222924004016
 31
0.0
 12
2632.265116180303
 22
-348.222924004016
 32
0.0
 13
2632.265116180303
 23
-348.222924004016
 33
0.0
  0
MTEXT
  5
2753
330
22AE
100
AcDbEntity
  8
0
 62
     0
100
AcDbMText
 10
2630.108397217137
 20
-317.8698720599276
 30
0.0
 40
3.0
 41
0.0
 46
0.0
 71
     5
 72
     1
  1
61
  7
Arial
 11
0.0000000000000001
 21
1.0
 31
0.0
 73
     1
 44
1.0
  0
POINT
  5
2754
330
22AE
100
AcDbEntity
  8
Defpoints
 62
     0
100
AcDbPoint
 10
2611.313280108972
 20
-287.51682011584
 30
0.0
  0
POINT
  5
2755
330
22AE
100
AcDbEntity
  8
Defpoints
 62
     0
100
AcDbPoint
 10
2614.26901089701
 20
-348.222924004016
 30
0.0
  0
POINT
  5
2756
330
22AE
100
AcDbEntity
  8
Defpoints
 62
     0
100
AcDbPoint
 10
2632.265116180303
 20
-348.222924004016
 30
0.0
  0
ENDBLK
  5
22B9
330
22AE
100
AcDbEntity
  8
0
100
AcDbBlockEnd
  0
BLOCK
  5
271C
330
2712
100
AcDbEntity
  8
0
100
AcDbBlockBegin
  2
*D43
 70
     1
 10
0.0
 20
0.0
 30
0.0
  3
*D43
  1

  0
LINE
  5
271F
330
2712
100
AcDbEntity
  8
0
 62
     0
370
    -2
100
AcDbLine
 10
2547.560714942048
 20
-460.3571640619259
 30
0.0
 11
2555.716410712853
 21
-460.3571640619259
 31
0.0
  0
LINE
  5
2720
330
2712
100
AcDbEntity
  8
0
 62
     0
370
    -2
100
AcDbLine
 10
2555.716410712853
 20
-460.3571640619259
 30
0.0
 11
2561.354075267358
 21
-454.389490317882
 31
0.0
  0
LINE
  5
2721
330
2712
100
AcDbEntity
  8
0
 62
     0
370
    -2
100
AcDbLine
 10
2601.18394652666
 20
-412.2281175287104
 30
0.0
 11
2603.244112281451
 21
-410.0473568672016
 31
0.0
  0
MTEXT
  5
2722
330
2712
100
AcDbEntity
  8
0
 62
     0
100
AcDbMText
 10
2551.326062827451
 20
-458.1165433252269
 30
0.0
 40
3.0
 41
0.0
 46
0.0
 71
     5
 72
     1
  1
∅52
  7
Arial
 73
     1
 44
1.0
  0
LINE
  5
2723
330
2712
100
AcDbEntity
  8
0
 62
     0
370
    -2
100
AcDbLine
 10
2599.123780771869
 20
-414.4088781902193
 30
0.0
 11
2563.41424102215
 21
-452.2087296563731
 31
0.0
  0
SOLID
  5
2724
330
2712
100
AcDbEntity
  8
0
 62
     0
100
AcDbTrace
 10
2600.820486416408
 20
-411.8847565695786
 30
0.0
 11
2601.547406636912
 21
-412.5714784878423
 31
0.0
 12
2599.123780771869
 22
-414.4088781902193
 32
0.0
 13
2599.123780771869
 23
-414.4088781902193
 33
0.0
  0
SOLID
  5
2725
330
2712
100
AcDbEntity
  8
0
 62
     0
100
AcDbTrace
 10
2560.990615157107
 20
-454.0461293587501
 30
0.0
 11
2561.71753537761
 21
-454.7328512770137
 31
0.0
 12
2563.41424102215
 22
-452.2087296563731
 32
0.0
 13
2563.41424102215
 23
-452.2087296563731
 33
0.0
  0
POINT
  5
2726
330
2712
100
AcDbEntity
  8
Defpoints
 62
     0
100
AcDbPoint
 10
2563.41424102215
 20
-452.2087296563731
 30
0.0
  0
POINT
  5
2727
330
2712
100
AcDbEntity
  8
Defpoints
 62
     0
100
AcDbPoint
 10
2599.123780771869
 20
-414.4088781902193
 30
0.0
  0
ENDBLK
  5
271D
330
2712
100
AcDbEntity
  8
0
100
AcDbBlockEnd
  0
BLOCK
  5
2794
330
278A
100
AcDbEntity
  8
0
100
AcDbBlockBegin
  2
*D44
 70
     1
 10
0.0
 20
0.0
 30
0.0
  3
*D44
  1

  0
LINE
  5
28B1
330
278A
100
AcDbEntity
  8
COTAS
 62
     0
440
 16777216
370
    -2
100
AcDbLine
 10
686.8970407411759
 20
-240.8484668826423
 30
0.0
 11
678.6881389676425
 21
-240.8484668826423
 31
0.0
  0
LINE
  5
28B2
330
278A
100
AcDbEntity
  8
COTAS
 62
     0
440
 16777216
370
    -2
100
AcDbLine
 10
678.6881389676425
 20
-240.8484668826423
 30
0.0
 11
676.5679306605063
 21
-242.9708986799802
 31
0.0
  0
LINE
  5
28B3
330
278A
100
AcDbEntity
  8
COTAS
 62
     0
440
 16777216
370
    -2
100
AcDbLine
 10
654.659111486766
 20
-264.9026939191378
 30
0.0
 11
652.5389031796298
 21
-267.0251257164756
 31
0.0
  0
MTEXT
  5
28B4
330
278A
100
AcDbEntity
  8
COTAS
 62
     0
440
 16777216
100
AcDbMText
 10
683.1050898544093
 20
-238.6078461459439
 30
0.0
 40
3.0
 41
0.0
 46
0.0
 71
     5
 72
     1
  1
∅25
  7
Arial
 73
     1
 44
1.0
  0
LINE
  5
28B5
330
278A
100
AcDbEntity
  8
COTAS
 62
     0
440
 16777216
370
    -2
100
AcDbLine
 10
656.7793197939022
 20
-262.7802621218
 30
0.0
 11
674.4477223533701
 21
-245.093330477318
 31
0.0
  0
SOLID
  5
28B6
330
278A
100
AcDbEntity
  8
COTAS
 62
     0
440
 16777216
100
AcDbTrace
 10
654.3053728538763
 20
-264.5493258679485
 30
0.0
 11
655.0128501196556
 21
-265.2560619703272
 31
0.0
 12
656.7793197939022
 22
-262.7802621218
 32
0.0
 13
656.7793197939022
 23
-262.7802621218
 33
0.0
  0
SOLID
  5
28B7
330
278A
100
AcDbEntity
  8
COTAS
 62
     0
440
 16777216
100
AcDbTrace
 10
676.2141920276167
 20
-242.6175306287908
 30
0.0
 11
676.921669293396
 21
-243.3242667311695
 31
0.0
 12
674.4477223533701
 22
-245.093330477318
 32
0.0
 13
674.4477223533701
 23
-245.093330477318
 33
0.0
  0
POINT
  5
28B8
330
278A
100
AcDbEntity
  8
Defpoints
 62
     0
440
 16777216
100
AcDbPoint
 10
674.4477223533701
 20
-245.093330477318
 30
0.0
  0
POINT
  5
28B9
330
278A
100
AcDbEntity
  8
Defpoints
 62
     0
440
 16777216
100
AcDbPoint
 10
656.7793197939022
 20
-262.7802621218
 30
0.0
  0
ENDBLK
  5
2795
330
278A
100
AcDbEntity
  8
0
100
AcDbBlockEnd
  0
BLOCK
  5
27AD
330
27A2
100
AcDbEntity
  8
0
100
AcDbBlockBegin
  2
*D45
 70
     1
 10
0.0
 20
0.0
 30
0.0
  3
*D45
  1

  0
LINE
  5
28A7
330
27A2
100
AcDbEntity
  8
COTAS
 62
     0
440
 16777216
370
    -2
100
AcDbLine
 10
646.6135210736362
 20
-297.8424740163298
 30
0.0
 11
636.0085919715271
 21
-297.8424740163297
 31
0.0
  0
LINE
  5
28A8
330
27A2
100
AcDbEntity
  8
COTAS
 62
     0
440
 16777216
370
    -2
100
AcDbLine
 10
646.6135210736362
 20
-326.8424740163295
 30
0.0
 11
636.0085919715271
 21
-326.8424740163295
 31
0.0
  0
LINE
  5
28A9
330
27A2
100
AcDbEntity
  8
COTAS
 62
     0
440
 16777216
370
    -2
100
AcDbLine
 10
637.2585919715271
 20
-300.8424740163297
 30
0.0
 11
637.2585919715271
 21
-310.1857550531645
 31
0.0
  0
LINE
  5
28AA
330
27A2
100
AcDbEntity
  8
COTAS
 62
     0
440
 16777216
370
    -2
100
AcDbLine
 10
637.2585919715271
 20
-323.8424740163295
 30
0.0
 11
637.2585919715271
 21
-314.4991929794947
 31
0.0
  0
SOLID
  5
28AB
330
27A2
100
AcDbEntity
  8
COTAS
 62
     0
440
 16777216
100
AcDbTrace
 10
636.7585919715271
 20
-300.8424740163297
 30
0.0
 11
637.7585919715271
 21
-300.8424740163297
 31
0.0
 12
637.2585919715271
 22
-297.8424740163297
 32
0.0
 13
637.2585919715271
 23
-297.8424740163297
 33
0.0
  0
SOLID
  5
28AC
330
27A2
100
AcDbEntity
  8
COTAS
 62
     0
440
 16777216
100
AcDbTrace
 10
636.7585919715271
 20
-323.8424740163295
 30
0.0
 11
637.7585919715271
 21
-323.8424740163295
 31
0.0
 12
637.2585919715271
 22
-326.8424740163295
 32
0.0
 13
637.2585919715271
 23
-326.8424740163295
 33
0.0
  0
MTEXT
  5
28AD
330
27A2
100
AcDbEntity
  8
COTAS
 62
     0
440
 16777216
100
AcDbMText
 10
637.2585919715272
 20
-312.3424740163295
 30
0.0
 40
3.0
 41
0.0
 46
0.0
 71
     5
 72
     1
  1
29
  7
Arial
 73
     1
 44
1.0
  0
POINT
  5
28AE
330
27A2
100
AcDbEntity
  8
Defpoints
 62
     0
440
 16777216
100
AcDbPoint
 10
653.6135210736363
 20
-297.8424740163298
 30
0.0
  0
POINT
  5
28AF
330
27A2
100
AcDbEntity
  8
Defpoints
 62
     0
440
 16777216
100
AcDbPoint
 10
653.6135210736363
 20
-326.8424740163295
 30
0.0
  0
POINT
  5
28B0
330
27A2
100
AcDbEntity
  8
Defpoints
 62
     0
440
 16777216
100
AcDbPoint
 10
637.2585919715271
 20
-326.8424740163295
 30
0.0
  0
ENDBLK
  5
27AE
330
27A2
100
AcDbEntity
  8
0
100
AcDbBlockEnd
  0
ENDSEC
  0
SECTION
  2
ENTITIES
  0
LINE
  5
264
330
1F
100
AcDbEntity
  8
ARTICULO
100
AcDbLine
 10
653.6135210736362
 20
-326.8424740163297
 30
0.0
 11
678.6135210736362
 21
-326.8424740163297
 31
0.0
  0
LINE
  5
265
330
1F
100
AcDbEntity
  8
ARTICULO
100
AcDbLine
 10
678.6135210736362
 20
-326.8424740163297
 30
0.0
 11
678.6135210736362
 21
-308.8424740163297
 31
0.0
  0
LINE
  5
266
330
1F
100
AcDbEntity
  8
ARTICULO
100
AcDbLine
 10
678.6135210736362
 20
-297.8424740163297
 30
0.0
 11
653.6135210736363
 21
-297.8424740163298
 31
0.0
  0
LINE
  5
267
102
{ACAD_REACTORS
330
27BA
102
}
330
1F
100
AcDbEntity
  8
ARTICULO
100
AcDbLine
 10
653.6135210736363
 20
-297.8424740163298
 30
0.0
 11
653.6135210736364
 21
-303.8424740163298
 31
0.0
  0
LINE
  5
268
330
1F
100
AcDbEntity
  8
ARTICULO
100
AcDbLine
 10
678.6135210736362
 20
-303.8424740163297
 30
0.0
 11
653.6135210736363
 21
-303.8424740163298
 31
0.0
  0
LINE
  5
269
330
1F
100
AcDbEntity
  8
ARTICULO
100
AcDbLine
 10
678.6135210736362
 20
-304.8424740163297
 30
0.0
 11
653.6135210736363
 21
-304.8424740163298
 31
0.0
  0
LINE
  5
26B
330
1F
100
AcDbEntity
  8
ARTICULO
100
AcDbLine
 10
678.6135210736362
 20
-307.8424740163297
 30
0.0
 11
653.6135210736363
 21
-307.8424740163298
 31
0.0
  0
LINE
  5
26C
330
1F
100
AcDbEntity
  8
ARTICULO
100
AcDbLine
 10
678.6135210736362
 20
-308.8424740163297
 30
0.0
 11
653.6135210736363
 21
-308.8424740163298
 31
0.0
  0
LINE
  5
26D
330
1F
100
AcDbEntity
  8
ARTICULO
100
AcDbLine
 10
654.6135210736362
 20
-303.8424740163298
 30
0.0
 11
654.6135210736363
 21
-304.8424740163297
 31
0.0
  0
LINE
  5
26E
330
1F
100
AcDbEntity
  8
ARTICULO
100
AcDbLine
 10
677.6135210736362
 20
-308.8424740163297
 30
0.0
 11
677.6135210736359
 21
-307.8424740163296
 31
0.0
  0
LINE
  5
26F
330
1F
100
AcDbEntity
  8
ARTICULO
100
AcDbLine
 10
678.6135210736362
 20
-303.8424740163297
 30
0.0
 11
678.6135210736362
 21
-297.8424740163297
 31
0.0
  0
LINE
  5
270
330
1F
100
AcDbEntity
  8
ARTICULO
100
AcDbLine
 10
678.6135210736362
 20
-307.8424740163297
 30
0.0
 11
678.6135210736362
 21
-304.8424740163297
 31
0.0
  0
LINE
  5
271
330
1F
100
AcDbEntity
  8
ARTICULO
100
AcDbLine
 10
677.6135210736359
 20
-304.8424740163294
 30
0.0
 11
677.6135210736362
 21
-303.8424740163297
 31
0.0
  0
LINE
  5
272
330
1F
100
AcDbEntity
  8
ARTICULO
100
AcDbLine
 10
654.6135210736363
 20
-307.8424740163297
 30
0.0
 11
654.6135210736364
 21
-308.8424740163298
 31
0.0
  0
LINE
  5
273
330
1F
100
AcDbEntity
  8
ARTICULO
100
AcDbLine
 10
653.6135210736364
 20
-304.8424740163298
 30
0.0
 11
653.6135210736359
 21
-307.8424740163298
 31
0.0
  0
LINE
  5
274
102
{ACAD_REACTORS
330
27BA
102
}
330
1F
100
AcDbEntity
  8
ARTICULO
100
AcDbLine
 10
653.6135210736359
 20
-308.8424740163297
 30
0.0
 11
653.6135210736363
 21
-326.8424740163295
 31
0.0
  0
CIRCLE
  5
2788
102
{ACAD_REACTORS
330
27A0
102
}
330
1F
100
AcDbEntity
  8
ARTICULO
100
AcDbCircle
 10
665.6135210736362
 20
-253.936796299559
 30
0.0
 40
12.5
  0
DIMENSION
  5
2789
102
{ACAD_XDICTIONARY
360
2796
102
}
102
{ACAD_REACTORS
330
27A0
102
}
330
1F
100
AcDbEntity
  8
COTAS
100
AcDbDimension
  2
*D44
 10
656.7793197939022
 20
-262.7802621218
 30
0.0
 11
683.1050898544093
 21
-238.6078461459439
 31
0.0
 70
    35
 71
     5
 42
24.99999999999989
 73
     0
 74
     0
 75
     0
  3
Radios 1-1
100
AcDbDiametricDimension
 15
674.4477223533701
 25
-245.093330477318
 35
0.0
 40
0.0
1001
ACAD
1000
DSTYLE
1002
{
1070
   288
1070
     1
1002
}
  0
DIMENSION
  5
27A1
102
{ACAD_XDICTIONARY
360
27AF
102
}
102
{ACAD_REACTORS
330
27BA
102
}
330
1F
100
AcDbEntity
  8
COTAS
100
AcDbDimension
  2
*D45
 10
637.2585919715271
 20
-326.8424740163295
 30
0.0
 11
637.2585919715272
 21
-312.3424740163295
 31
0.0
 70
    32
 71
     5
 42
28.99999999999977
 73
     0
 74
     0
 75
     0
  3
Radios 1-1
100
AcDbAlignedDimension
 13
653.6135210736363
 23
-297.8424740163298
 33
0.0
 14
653.6135210736363
 24
-326.8424740163295
 34
0.0
 50
90.0
100
AcDbRotatedDimension
  0
LWPOLYLINE
  5
2880
330
1F
100
AcDbEntity
  8
0
100
AcDbPolyline
 90
        4
 70
     1
 43
0.0
 10
616.7146602806046
 20
-220.9445352287452
 10
706.9724119725495
 20
-220.9445352287452
 10
706.9724119725495
 20
-345.979971863357
 10
616.7146602806046
 20
-345.979971863357
  0
LWPOLYLINE
  5
2881
330
1F
100
AcDbEntity
  8
0
100
AcDbPolyline
 90
        4
 70
     1
 43
0.0
 10
611.7146602806046
 20
-215.9445352287452
 10
711.9724119725495
 20
-215.9445352287452
 10
711.9724119725495
 20
-350.979971863357
 10
611.7146602806046
 20
-350.979971863357
  0
ENDSEC
  0
SECTION
  2
OBJECTS
  0
DICTIONARY
  5
C
330
0
100
AcDbDictionary
281
     1
  3
ACAD_CIP_PREVIOUS_PRODUCT_INFO
350
284A
  3
ACAD_COLOR
350
6B
  3
ACAD_GROUP
350
D
  3
ACAD_LAYOUT
350
1A
  3
ACAD_MATERIAL
350
6A
  3
ACAD_MLEADERSTYLE
350
281E
  3
ACAD_MLINESTYLE
350
17
  3
ACAD_PLOTSETTINGS
350
19
  3
ACAD_PLOTSTYLENAME
350
E
  3
ACAD_SCALELIST
350
280C
  3
ACAD_TABLESTYLE
350
7E
  3
ACAD_VISUALSTYLE
350
27F3
  3
ACDB_RECOMPOSE_DATA
350
28C9
  3
AcDbVariableDictionary
350
5E
  0
DICTIONARY
  5
28BA
330
10
100
AcDbDictionary
280
     1
281
     1
  3
ADSK_XREC_LAYER_RECONCILED
360
28BB
  0
DICTIONARY
  5
28BC
330
285F
100
AcDbDictionary
280
     1
281
     1
  3
ADSK_XREC_LAYER_RECONCILED
360
28BD
  0
DICTIONARY
  5
28BE
330
2862
100
AcDbDictionary
280
     1
281
     1
  3
ADSK_XREC_LAYER_RECONCILED
360
28BF
  0
DICTIONARY
  5
EF
330
1F
100
AcDbDictionary
280
     1
281
     1
  3
ACAD_SORTENTS
360
F0
  0
DICTIONARY
  5
15C
330
15A
100
AcDbDictionary
280
     1
281
     1
  3
ACAD_SORTENTS
360
15D
  0
DICTIONARY
  5
2796
330
2789
100
AcDbDictionary
280
     1
281
     1
  3
ACAD_DIMASSOC
360
27A0
  0
DICTIONARY
  5
27AF
330
27A1
100
AcDbDictionary
280
     1
281
     1
  3
ACAD_DIMASSOC
360
27BA
  0
XRECORD
  5
284A
102
{ACAD_REACTORS
330
C
102
}
330
C
100
AcDbXrecord
280
     1
300
ACD
300
2012
300
ACD_F_S
  0
DICTIONARY
  5
6B
102
{ACAD_REACTORS
330
C
102
}
330
C
100
AcDbDictionary
281
     1
  0
DICTIONARY
  5
D
102
{ACAD_REACTORS
330
C
102
}
330
C
100
AcDbDictionary
281
     1
  0
DICTIONARY
  5
1A
102
{ACAD_REACTORS
330
C
102
}
330
C
100
AcDbDictionary
281
     1
  3
Layout1
350
D3
  3
Layout2
350
D7
  3
Model
350
22
  0
DICTIONARY
  5
6A
102
{ACAD_REACTORS
330
C
102
}
330
C
100
AcDbDictionary
281
     1
  3
ByBlock
350
27E3
  3
ByLayer
350
27DB
  3
Global
350
27EB
  0
DICTIONARY
  5
281E
102
{ACAD_REACTORS
330
C
102
}
330
C
100
AcDbDictionary
281
     1
  3
Standard
350
281F
  0
DICTIONARY
  5
17
102
{ACAD_REACTORS
330
C
102
}
330
C
100
AcDbDictionary
281
     1
  3
Standard
350
18
  0
DICTIONARY
  5
19
102
{ACAD_REACTORS
330
C
102
}
330
C
100
AcDbDictionary
281
     1
  0
ACDBDICTIONARYWDFLT
  5
E
102
{ACAD_REACTORS
330
C
102
}
330
C
100
AcDbDictionary
281
     1
  3
Normal
350
F
100
AcDbDictionaryWithDefault
340
F
  0
DICTIONARY
  5
280C
102
{ACAD_REACTORS
330
C
102
}
330
C
100
AcDbDictionary
281
     1
  3
A0
350
280D
  3
A1
350
280E
  3
A2
350
280F
  3
A3
350
2810
  3
A4
350
2811
  3
A5
350
2812
  3
A6
350
2813
  3
A7
350
2814
  3
A8
350
2815
  3
A9
350
2816
  3
B0
350
2817
  3
B1
350
2818
  3
B2
350
2819
  3
B3
350
281A
  3
B4
350
281B
  3
B5
350
281C
  3
B6
350
281D
  0
DICTIONARY
  5
7E
102
{ACAD_REACTORS
330
C
102
}
330
C
100
AcDbDictionary
281
     1
  3
Standard
350
7F
  0
DICTIONARY
  5
27F3
102
{ACAD_REACTORS
330
C
102
}
330
C
100
AcDbDictionary
281
     1
  3
2dWireframe
350
27F9
  3
Basic
350
27F8
  3
Brighten
350
27FF
  3
ColorChange
350
2803
  3
Conceptual
350
27FC
  3
Dim
350
27FE
  3
EdgeColorOff
350
280B
  3
Facepattern
350
2802
  3
Flat
350
27F4
  3
FlatWithEdges
350
27F5
  3
Gouraud
350
27F6
  3
GouraudWithEdges
350
27F7
  3
Hidden
350
27FB
  3
JitterOff
350
2809
  3
Linepattern
350
2801
  3
OverhangOff
350
280A
  3
Realistic
350
27FD
  3
Shaded
350
2808
  3
Shaded with edges
350
2807
  3
Shades of Gray
350
2804
  3
Sketchy
350
2805
  3
Thicken
350
2800
  3
Wireframe
350
27FA
  3
X-Ray
350
2806
  0
XRECORD
  5
28C9
102
{ACAD_REACTORS
330
C
102
}
330
C
100
AcDbXrecord
280
     1
 90
        1
330
7F
  0
DICTIONARY
  5
5E
102
{ACAD_REACTORS
330
C
102
}
330
C
100
AcDbDictionary
281
     1
  3
CANNOSCALE
350
28C2
  3
CMLEADERSTYLE
350
28C0
  3
CTABLESTYLE
350
84
  3
DIMASSOC
350
5F
  3
HIDETEXT
350
63
  3
LAYEREVAL
350
28C4
  3
LAYERNOTIFY
350
28C5
  3
LIGHTINGUNITS
350
28C3
  3
MSLTSCALE
350
28C1
  0
XRECORD
  5
28BB
102
{ACAD_REACTORS
330
28BA
102
}
330
28BA
100
AcDbXrecord
280
     1
290
     1
  0
XRECORD
  5
28BD
102
{ACAD_REACTORS
330
28BC
102
}
330
28BC
100
AcDbXrecord
280
     1
290
     1
  0
XRECORD
  5
28BF
102
{ACAD_REACTORS
330
28BE
102
}
330
28BE
100
AcDbXrecord
280
     1
290
     1
  0
SORTENTSTABLE
  5
F0
102
{ACAD_REACTORS
330
EF
102
}
330
EF
100
AcDbSortentsTable
330
1F
331
2880
  5
2880
331
274
  5
274
331
2881
  5
2881
331
27A1
  5
27A1
331
268
  5
270
331
269
  5
271
331
26B
  5
26E
331
26C
  5
26F
331
264
  5
266
331
26D
  5
278
331
265
  5
267
331
26E
  5
26B
331
26F
  5
269
331
266
  5
26D
331
2788
  5
2788
331
267
  5
272
331
270
  5
268
331
2789
  5
2789
331
271
  5
26C
331
272
  5
282
331
273
  5
273
  0
SORTENTSTABLE
  5
15D
102
{ACAD_REACTORS
330
15C
102
}
330
15C
100
AcDbSortentsTable
330
15A
  0
DIMASSOC
  5
27A0
102
{ACAD_REACTORS
330
2796
102
}
330
2796
100
AcDbDimAssoc
330
2789
 90
        2
 70
     0
 71
     0
  1
AcDbOsnapPointRef
 72
     3
331
2788
 73
     2
 91
        0
 40
0.0
 10
0.0
 20
0.0
 30
0.0
 75
     0
  0
DIMASSOC
  5
27BA
102
{ACAD_REACTORS
330
27AF
102
}
330
27AF
100
AcDbDimAssoc
330
27A1
 90
        3
 70
     0
 71
     0
  1
AcDbOsnapPointRef
 72
    13
331
267
 73
     2
 91
        0
 40
0.0
 10
0.0
 20
0.0
 30
2.000000000000000E+50
 75
     0
  1
AcDbOsnapPointRef
 72
     1
331
274
 73
     2
 91
        0
 40
1.0
 10
0.0
 20
0.0
 30
2.000000000000000E+50
 75
     0
  0
LAYOUT
  5
D3
102
{ACAD_REACTORS
330
1A
102
}
330
1A
100
AcDbPlotSettings
  1

  2
C:\Documents and Settings\basas\Application Data\Autodesk\AutoCAD 2005\R16.1\enu\plotters\Default Windows System Printer.pc3
  4

  6

 40
0.0
 41
0.0
 42
0.0
 43
0.0
 44
0.0
 45
0.0
 46
0.0
 47
0.0
 48
0.0
 49
0.0
140
0.0
141
0.0
142
1.0
143
1.0
 70
   688
 72
     0
 73
     0
 74
     5
  7

 75
    16
147
1.0
 76
     0
 77
     2
 78
   300
148
0.0
149
0.0
100
AcDbLayout
  1
Layout1
 70
     1
 71
     1
 10
0.0
 20
0.0
 11
12.0
 21
9.0
 12
0.0
 22
0.0
 32
0.0
 14
0.0
 24
0.0
 34
0.0
 15
0.0
 25
0.0
 35
0.0
146
0.0
 13
0.0
 23
0.0
 33
0.0
 16
1.0
 26
0.0
 36
0.0
 17
0.0
 27
1.0
 37
0.0
 76
     0
330
D2
  0
LAYOUT
  5
D7
102
{ACAD_REACTORS
330
1A
102
}
330
1A
100
AcDbPlotSettings
  1

  2
C:\Documents and Settings\basas\Application Data\Autodesk\AutoCAD 2005\R16.1\enu\plotters\Default Windows System Printer.pc3
  4

  6

 40
0.0
 41
0.0
 42
0.0
 43
0.0
 44
0.0
 45
0.0
 46
0.0
 47
0.0
 48
0.0
 49
0.0
140
0.0
141
0.0
142
1.0
143
1.0
 70
   688
 72
     0
 73
     0
 74
     5
  7

 75
    16
147
1.0
 76
     0
 77
     2
 78
   300
148
0.0
149
0.0
100
AcDbLayout
  1
Layout2
 70
     1
 71
     2
 10
0.0
 20
0.0
 11
12.0
 21
9.0
 12
0.0
 22
0.0
 32
0.0
 14
0.0
 24
0.0
 34
0.0
 15
0.0
 25
0.0
 35
0.0
146
0.0
 13
0.0
 23
0.0
 33
0.0
 16
1.0
 26
0.0
 36
0.0
 17
0.0
 27
1.0
 37
0.0
 76
     0
330
D6
  0
LAYOUT
  5
22
102
{ACAD_REACTORS
330
1A
102
}
330
1A
100
AcDbPlotSettings
  1

  2
none_device
  4
ISO_A4_(210.00_x_297.00_MM)
  6

 40
7.5
 41
20.0
 42
7.5
 43
20.0
 44
210.0
 45
297.0
 46
11.54999923706054
 47
-13.65000009536743
 48
0.0
 49
0.0
140
0.0
141
0.0
142
1.0
143
8.704084754739808
 70
 11952
 72
     1
 73
     0
 74
     0
  7

 75
     0
147
0.1148885871608098
 76
     0
 77
     2
 78
   300
148
0.0
149
0.0
100
AcDbLayout
  1
Model
 70
     1
 71
     0
 10
0.0
 20
0.0
 11
12.0
 21
9.0
 12
0.0
 22
0.0
 32
0.0
 14
0.0
 24
0.0
 34
0.0
 15
0.0
 25
0.0
 35
0.0
146
0.0
 13
0.0
 23
0.0
 33
0.0
 16
1.0
 26
0.0
 36
0.0
 17
0.0
 27
1.0
 37
0.0
 76
     0
330
1F
331
27D8
1001
ACAD_PSEXT
1000
None
1000
None
1000
Not applicable
1000
The layout will not be plotted unless a new plotter configuration name is selected.
1070
     0
  0
MATERIAL
  5
27E3
102
{ACAD_XDICTIONARY
360
27E4
102
}
102
{ACAD_REACTORS
330
6A
102
}
330
6A
100
AcDbMaterial
  1
ByBlock
 72
     0
 43
0.0008202099737533
 43
0.0
 43
0.0
 43
0.0
 43
0.0
 43
0.0008202099737533
 43
0.0
 43
0.0
 43
0.0
 43
0.0
 43
1.0
 43
0.0
 43
0.0
 43
0.0
 43
0.0
 43
1.0
 77
     0
 47
0.0008202099737533
 47
0.0
 47
0.0
 47
0.0
 47
0.0
 47
0.0008202099737533
 47
0.0
 47
0.0
 47
0.0
 47
0.0
 47
1.0
 47
0.0
 47
0.0
 47
0.0
 47
0.0
 47
1.0
171
     0
 49
0.0008202099737533
 49
0.0
 49
0.0
 49
0.0
 49
0.0
 49
0.0008202099737533
 49
0.0
 49
0.0
 49
0.0
 49
0.0
 49
1.0
 49
0.0
 49
0.0
 49
0.0
 49
0.0
 49
1.0
175
     0
142
0.0008202099737533
142
0.0
142
0.0
142
0.0
142
0.0
142
0.0008202099737533
142
0.0
142
0.0
142
0.0
142
0.0
142
1.0
142
0.0
142
0.0
142
0.0
142
0.0
142
1.0
179
     0
144
0.0008202099737533
144
0.0
144
0.0
144
0.0
144
0.0
144
0.0008202099737533
144
0.0
144
0.0
144
0.0
144
0.0
144
1.0
144
0.0
144
0.0
144
0.0
144
0.0
144
1.0
147
0.0008202099737533
147
0.0
147
0.0
147
0.0
147
0.0
147
0.0008202099737533
147
0.0
147
0.0
147
0.0
147
0.0
147
1.0
147
0.0
147
0.0
147
0.0
147
0.0
147
1.0
  0
MATERIAL
  5
27DB
102
{ACAD_XDICTIONARY
360
27DC
102
}
102
{ACAD_REACTORS
330
6A
102
}
330
6A
100
AcDbMaterial
  1
ByLayer
 72
     0
 43
0.0008202099737533
 43
0.0
 43
0.0
 43
0.0
 43
0.0
 43
0.0008202099737533
 43
0.0
 43
0.0
 43
0.0
 43
0.0
 43
1.0
 43
0.0
 43
0.0
 43
0.0
 43
0.0
 43
1.0
 77
     0
 47
0.0008202099737533
 47
0.0
 47
0.0
 47
0.0
 47
0.0
 47
0.0008202099737533
 47
0.0
 47
0.0
 47
0.0
 47
0.0
 47
1.0
 47
0.0
 47
0.0
 47
0.0
 47
0.0
 47
1.0
171
     0
 49
0.0008202099737533
 49
0.0
 49
0.0
 49
0.0
 49
0.0
 49
0.0008202099737533
 49
0.0
 49
0.0
 49
0.0
 49
0.0
 49
1.0
 49
0.0
 49
0.0
 49
0.0
 49
0.0
 49
1.0
175
     0
142
0.0008202099737533
142
0.0
142
0.0
142
0.0
142
0.0
142
0.0008202099737533
142
0.0
142
0.0
142
0.0
142
0.0
142
1.0
142
0.0
142
0.0
142
0.0
142
0.0
142
1.0
179
     0
144
0.0008202099737533
144
0.0
144
0.0
144
0.0
144
0.0
144
0.0008202099737533
144
0.0
144
0.0
144
0.0
144
0.0
144
1.0
144
0.0
144
0.0
144
0.0
144
0.0
144
1.0
147
0.0008202099737533
147
0.0
147
0.0
147
0.0
147
0.0
147
0.0008202099737533
147
0.0
147
0.0
147
0.0
147
0.0
147
1.0
147
0.0
147
0.0
147
0.0
147
0.0
147
1.0
  0
MATERIAL
  5
27EB
102
{ACAD_XDICTIONARY
360
27EC
102
}
102
{ACAD_REACTORS
330
6A
102
}
330
6A
100
AcDbMaterial
  1
Global
 72
     0
 43
0.0008202099737533
 43
0.0
 43
0.0
 43
0.0
 43
0.0
 43
0.0008202099737533
 43
0.0
 43
0.0
 43
0.0
 43
0.0
 43
1.0
 43
0.0
 43
0.0
 43
0.0
 43
0.0
 43
1.0
 77
     0
 47
0.0008202099737533
 47
0.0
 47
0.0
 47
0.0
 47
0.0
 47
0.0008202099737533
 47
0.0
 47
0.0
 47
0.0
 47
0.0
 47
1.0
 47
0.0
 47
0.0
 47
0.0
 47
0.0
 47
1.0
171
     0
 49
0.0008202099737533
 49
0.0
 49
0.0
 49
0.0
 49
0.0
 49
0.0008202099737533
 49
0.0
 49
0.0
 49
0.0
 49
0.0
 49
1.0
 49
0.0
 49
0.0
 49
0.0
 49
0.0
 49
1.0
175
     0
142
0.0008202099737533
142
0.0
142
0.0
142
0.0
142
0.0
142
0.0008202099737533
142
0.0
142
0.0
142
0.0
142
0.0
142
1.0
142
0.0
142
0.0
142
0.0
142
0.0
142
1.0
179
     0
144
0.0008202099737533
144
0.0
144
0.0
144
0.0
144
0.0
144
0.0008202099737533
144
0.0
144
0.0
144
0.0
144
0.0
144
1.0
144
0.0
144
0.0
144
0.0
144
0.0
144
1.0
147
0.0008202099737533
147
0.0
147
0.0
147
0.0
147
0.0
147
0.0008202099737533
147
0.0
147
0.0
147
0.0
147
0.0
147
1.0
147
0.0
147
0.0
147
0.0
147
0.0
147
1.0
  0
MLEADERSTYLE
  5
281F
102
{ACAD_REACTORS
330
281E
102
}
330
281E
100
AcDbMLeaderStyle
170
     2
171
     1
172
     0
 90
        2
 40
0.0
 41
0.0
173
     1
 91
-1056964608
340
14
 92
       -2
290
     1
 42
2.0
291
     1
 43
0.36
  3
Standard
 44
4.0
300

342
11
174
     1
178
     6
175
     1
176
     0
 93
-1056964608
 45
4.0
292
     0
297
     0
 46
4.0
 94
-1056964608
 47
1.0
 49
1.0
140
1.0
293
     1
141
0.0
294
     1
177
     0
142
1.0
295
     0
296
     0
143
0.125
1001
ACAD_MLEADERVER
1070
     2
  0
MLINESTYLE
  5
18
102
{ACAD_REACTORS
330
17
102
}
330
17
100
AcDbMlineStyle
  2
STANDARD
 70
     0
  3

 62
   256
 51
90.0
 52
90.0
 71
     2
 49
0.5
 62
   256
  6
BYLAYER
 49
-0.5
 62
   256
  6
BYLAYER
  0
ACDBPLACEHOLDER
  5
F
102
{ACAD_REACTORS
330
E
102
}
330
E
  0
SCALE
  5
280D
102
{ACAD_REACTORS
330
280C
102
}
330
280C
100
AcDbScale
 70
     0
300
1:1
140
1.0
141
1.0
290
     1
  0
SCALE
  5
280E
102
{ACAD_REACTORS
330
280C
102
}
330
280C
100
AcDbScale
 70
     0
300
1:2
140
1.0
141
2.0
290
     0
  0
SCALE
  5
280F
102
{ACAD_REACTORS
330
280C
102
}
330
280C
100
AcDbScale
 70
     0
300
1:4
140
1.0
141
4.0
290
     0
  0
SCALE
  5
2810
102
{ACAD_REACTORS
330
280C
102
}
330
280C
100
AcDbScale
 70
     0
300
1:5
140
1.0
141
5.0
290
     0
  0
SCALE
  5
2811
102
{ACAD_REACTORS
330
280C
102
}
330
280C
100
AcDbScale
 70
     0
300
1:8
140
1.0
141
8.0
290
     0
  0
SCALE
  5
2812
102
{ACAD_REACTORS
330
280C
102
}
330
280C
100
AcDbScale
 70
     0
300
1:10
140
1.0
141
10.0
290
     0
  0
SCALE
  5
2813
102
{ACAD_REACTORS
330
280C
102
}
330
280C
100
AcDbScale
 70
     0
300
1:16
140
1.0
141
16.0
290
     0
  0
SCALE
  5
2814
102
{ACAD_REACTORS
330
280C
102
}
330
280C
100
AcDbScale
 70
     0
300
1:20
140
1.0
141
20.0
290
     0
  0
SCALE
  5
2815
102
{ACAD_REACTORS
330
280C
102
}
330
280C
100
AcDbScale
 70
     0
300
1:30
140
1.0
141
30.0
290
     0
  0
SCALE
  5
2816
102
{ACAD_REACTORS
330
280C
102
}
330
280C
100
AcDbScale
 70
     0
300
1:40
140
1.0
141
40.0
290
     0
  0
SCALE
  5
2817
102
{ACAD_REACTORS
330
280C
102
}
330
280C
100
AcDbScale
 70
     0
300
1:50
140
1.0
141
50.0
290
     0
  0
SCALE
  5
2818
102
{ACAD_REACTORS
330
280C
102
}
330
280C
100
AcDbScale
 70
     0
300
1:100
140
1.0
141
100.0
290
     0
  0
SCALE
  5
2819
102
{ACAD_REACTORS
330
280C
102
}
330
280C
100
AcDbScale
 70
     0
300
2:1
140
2.0
141
1.0
290
     0
  0
SCALE
  5
281A
102
{ACAD_REACTORS
330
280C
102
}
330
280C
100
AcDbScale
 70
     0
300
4:1
140
4.0
141
1.0
290
     0
  0
SCALE
  5
281B
102
{ACAD_REACTORS
330
280C
102
}
330
280C
100
AcDbScale
 70
     0
300
8:1
140
8.0
141
1.0
290
     0
  0
SCALE
  5
281C
102
{ACAD_REACTORS
330
280C
102
}
330
280C
100
AcDbScale
 70
     0
300
10:1
140
10.0
141
1.0
290
     0
  0
SCALE
  5
281D
102
{ACAD_REACTORS
330
280C
102
}
330
280C
100
AcDbScale
 70
     0
300
100:1
140
100.0
141
1.0
290
     0
  0
TABLESTYLE
  5
7F
102
{ACAD_XDICTIONARY
360
28C7
102
}
102
{ACAD_REACTORS
330
7E
102
}
330
7E
100
AcDbTableStyle
  3
Standard
 70
     0
 71
     0
 40
1.5
 41
1.5
280
     0
281
     0
  7
Standard
140
4.5
170
     2
 62
     0
 63
     7
283
     0
 90
        4
 91
        0
  1

274
    -2
284
     1
 64
     0
275
    -2
285
     1
 65
     0
276
    -2
286
     1
 66
     0
277
    -2
287
     1
 67
     0
278
    -2
288
     1
 68
     0
279
    -2
289
     1
 69
     0
  7
Standard
140
6.0
170
     5
 62
     0
 63
     7
283
     0
 90
        4
 91
        0
  1

274
    -2
284
     1
 64
     0
275
    -2
285
     1
 65
     0
276
    -2
286
     1
 66
     0
277
    -2
287
     1
 67
     0
278
    -2
288
     1
 68
     0
279
    -2
289
     1
 69
     0
  7
Standard
140
4.5
170
     5
 62
     0
 63
     7
283
     0
 90
        4
 91
        0
  1

274
    -2
284
     1
 64
     0
275
    -2
285
     1
 65
     0
276
    -2
286
     1
 66
     0
277
    -2
287
     1
 67
     0
278
    -2
288
     1
 68
     0
279
    -2
289
     1
 69
     0
  0
VISUALSTYLE
  5
27F9
102
{ACAD_XDICTIONARY
360
28D4
102
}
102
{ACAD_REACTORS
330
27F3
102
}
330
27F3
100
AcDbVisualStyle
  2
2dWireframe
 70
     4
 71
     0
 72
     2
 73
     0
 90
        0
 40
-0.6
 41
-30.0
 62
     5
 63
     7
421
 16777215
 74
     1
 91
        4
 64
     7
 65
   257
 75
     1
175
     1
 42
1.0
 92
        0
 66
   257
 43
1.0
 76
     1
 77
     6
 78
     2
 67
     7
 79
     5
170
     0
171
     0
290
     0
174
     0
 93
        1
 44
0.0
173
     0
291
     0
 45
0.0
1001
ACAD
1000
AcDbSavedByObjectVersion
1070
     0
  0
VISUALSTYLE
  5
27F8
102
{ACAD_XDICTIONARY
360
28D2
102
}
102
{ACAD_REACTORS
330
27F3
102
}
330
27F3
100
AcDbVisualStyle
  2
Basic
 70
     7
 71
     1
 72
     0
 73
     1
 90
        0
 40
-0.6
 41
-30.0
 62
     5
 63
     7
421
 16777215
 74
     0
 91
        4
 64
     7
 65
   257
 75
     1
175
     1
 42
1.0
 92
        8
 66
     7
 43
1.0
 76
     1
 77
     6
 78
     2
 67
     7
 79
     5
170
     0
171
     0
290
     0
174
     0
 93
        1
 44
0.0
173
     0
291
     1
 45
0.0
1001
ACAD
1000
AcDbSavedByObjectVersion
1070
     0
  0
VISUALSTYLE
  5
27FF
102
{ACAD_XDICTIONARY
360
28E0
102
}
102
{ACAD_REACTORS
330
27F3
102
}
330
27F3
100
AcDbVisualStyle
  2
Brighten
 70
    12
 71
     2
 72
     2
 73
     0
 90
        0
 40
-0.6
 41
-30.0
 62
     5
 63
     7
421
 16777215
 74
     1
 91
        4
 64
     7
 65
   257
 75
     1
175
     1
 42
1.0
 92
        8
 66
     7
 43
1.0
 76
     1
 77
     6
 78
     2
 67
     7
 79
     5
170
     0
171
     0
290
     0
174
     0
 93
        1
 44
50.0
173
     0
291
     1
 45
0.0
1001
ACAD
1000
AcDbSavedByObjectVersion
1070
     0
  0
VISUALSTYLE
  5
2803
102
{ACAD_XDICTIONARY
360
28E8
102
}
102
{ACAD_REACTORS
330
27F3
102
}
330
27F3
100
AcDbVisualStyle
  2
ColorChange
 70
    16
 71
     2
 72
     2
 73
     3
 90
        0
 40
-0.6
 41
-30.0
 62
     5
 63
     8
421
  8421504
 74
     1
 91
        4
 64
     7
 65
   257
 75
     1
175
     1
 42
1.0
 92
        8
 66
     8
424
  8421504
 43
1.0
 76
     1
 77
     6
 78
     2
 67
     7
 79
     5
170
     0
171
     0
290
     0
174
     0
 93
        1
 44
0.0
173
     0
291
     1
 45
0.0
1001
ACAD
1000
AcDbSavedByObjectVersion
1070
     0
  0
VISUALSTYLE
  5
27FC
102
{ACAD_XDICTIONARY
360
28DA
102
}
102
{ACAD_REACTORS
330
27F3
102
}
330
27F3
100
AcDbVisualStyle
  2
Conceptual
 70
     9
 71
     3
 72
     2
 73
     0
 90
        0
 40
-0.6
 41
-30.0
 62
     5
 63
     7
421
 16777215
 74
     2
 91
        2
 64
     7
 65
   257
 75
     1
175
     1
 42
179.0
 92
        8
 66
     7
 43
1.0
 76
     1
 77
     6
 78
     2
 67
     7
 79
     3
170
     0
171
     0
290
     0
174
     0
 93
        1
 44
0.0
173
     0
291
     0
 45
0.0
1001
ACAD
1000
AcDbSavedByObjectVersion
1070
     0
  0
VISUALSTYLE
  5
27FE
102
{ACAD_XDICTIONARY
360
28DE
102
}
102
{ACAD_REACTORS
330
27F3
102
}
330
27F3
100
AcDbVisualStyle
  2
Dim
 70
    11
 71
     2
 72
     2
 73
     0
 90
        0
 40
-0.6
 41
-30.0
 62
     5
 63
     7
421
 16777215
 74
     1
 91
        4
 64
     7
 65
   257
 75
     1
175
     1
 42
1.0
 92
        8
 66
     7
 43
1.0
 76
     1
 77
     6
 78
     2
 67
     7
 79
     5
170
     0
171
     0
290
     0
174
     0
 93
        1
 44
-50.0
173
     0
291
     1
 45
0.0
1001
ACAD
1000
AcDbSavedByObjectVersion
1070
     0
  0
VISUALSTYLE
  5
280B
102
{ACAD_XDICTIONARY
360
28F8
102
}
102
{ACAD_REACTORS
330
27F3
102
}
330
27F3
100
AcDbVisualStyle
  2
EdgeColorOff
 70
    22
 71
     2
 72
     2
 73
     0
 90
        0
 40
-0.6
 41
-30.0
 62
     5
 63
     7
421
 16777215
 74
     1
 91
        4
 64
     7
 65
   257
 75
     1
175
     1
 42
1.0
 92
        8
 66
     7
 43
1.0
 76
     1
 77
     6
 78
     2
 67
     7
 79
     5
170
     0
171
     0
290
     0
174
     0
 93
        1
 44
0.0
173
     0
291
     1
 45
0.0
1001
ACAD
1000
AcDbSavedByObjectVersion
1070
     0
  0
VISUALSTYLE
  5
2802
102
{ACAD_XDICTIONARY
360
28E6
102
}
102
{ACAD_REACTORS
330
27F3
102
}
330
27F3
100
AcDbVisualStyle
  2
Facepattern
 70
    15
 71
     2
 72
     2
 73
     0
 90
        0
 40
-0.6
 41
-30.0
 62
     5
 63
     7
421
 16777215
 74
     1
 91
        4
 64
     7
 65
   257
 75
     1
175
     1
 42
1.0
 92
        8
 66
     7
 43
1.0
 76
     1
 77
     6
 78
     2
 67
     7
 79
     5
170
     0
171
     0
290
     0
174
     0
 93
        1
 44
0.0
173
     0
291
     1
 45
0.0
1001
ACAD
1000
AcDbSavedByObjectVersion
1070
     0
  0
VISUALSTYLE
  5
27F4
102
{ACAD_XDICTIONARY
360
28CA
102
}
102
{ACAD_REACTORS
330
27F3
102
}
330
27F3
100
AcDbVisualStyle
  2
Flat
 70
     0
 71
     2
 72
     1
 73
     1
 90
        2
 40
-0.6
 41
30.0
 62
     5
 63
     7
421
 16777215
 74
     0
 91
        0
 64
     7
 65
   257
 75
     1
175
     1
 42
1.0
 92
        8
 66
     7
 43
1.0
 76
     1
 77
     6
 78
     2
 67
     7
 79
     5
170
     0
171
     0
290
     0
174
     0
 93
       13
 44
0.0
173
     0
291
     1
 45
0.0
1001
ACAD
1000
AcDbSavedByObjectVersion
1070
     0
  0
VISUALSTYLE
  5
27F5
102
{ACAD_XDICTIONARY
360
28CC
102
}
102
{ACAD_REACTORS
330
27F3
102
}
330
27F3
100
AcDbVisualStyle
  2
FlatWithEdges
 70
     1
 71
     2
 72
     1
 73
     1
 90
        2
 40
-0.6
 41
30.0
 62
     5
 63
     7
421
 16777215
 74
     1
 91
        0
 64
     7
 65
   257
 75
     1
175
     1
 42
1.0
 92
        0
 66
   257
 43
1.0
 76
     1
 77
     6
 78
     2
 67
     7
 79
     5
170
     0
171
     0
290
     0
174
     0
 93
       13
 44
0.0
173
     0
291
     1
 45
0.0
1001
ACAD
1000
AcDbSavedByObjectVersion
1070
     0
  0
VISUALSTYLE
  5
27F6
102
{ACAD_XDICTIONARY
360
28CE
102
}
102
{ACAD_REACTORS
330
27F3
102
}
330
27F3
100
AcDbVisualStyle
  2
Gouraud
 70
     2
 71
     2
 72
     2
 73
     1
 90
        2
 40
-0.6
 41
30.0
 62
     5
 63
     7
421
 16777215
 74
     0
 91
        0
 64
     7
 65
   257
 75
     1
175
     1
 42
1.0
 92
        0
 66
     7
 43
1.0
 76
     1
 77
     6
 78
     2
 67
     7
 79
     5
170
     0
171
     0
290
     0
174
     0
 93
       13
 44
0.0
173
     0
291
     1
 45
0.0
1001
ACAD
1000
AcDbSavedByObjectVersion
1070
     0
  0
VISUALSTYLE
  5
27F7
102
{ACAD_XDICTIONARY
360
28D0
102
}
102
{ACAD_REACTORS
330
27F3
102
}
330
27F3
100
AcDbVisualStyle
  2
GouraudWithEdges
 70
     3
 71
     2
 72
     2
 73
     1
 90
        2
 40
-0.6
 41
30.0
 62
     5
 63
     7
421
 16777215
 74
     1
 91
        0
 64
     7
 65
   257
 75
     1
175
     1
 42
1.0
 92
        0
 66
   257
 43
1.0
 76
     1
 77
     6
 78
     2
 67
     7
 79
     5
170
     0
171
     0
290
     0
174
     0
 93
       13
 44
0.0
173
     0
291
     1
 45
0.0
1001
ACAD
1000
AcDbSavedByObjectVersion
1070
     0
  0
VISUALSTYLE
  5
27FB
102
{ACAD_XDICTIONARY
360
28D8
102
}
102
{ACAD_REACTORS
330
27F3
102
}
330
27F3
100
AcDbVisualStyle
  2
Hidden
 70
     6
 71
     1
 72
     2
 73
     2
 90
        0
 40
-0.6
 41
-30.0
 62
     5
 63
     7
421
 16777215
 74
     2
 91
        2
 64
     7
 65
   257
 75
     2
175
     1
 42
40.0
 92
        0
 66
   257
 43
1.0
 76
     1
 77
     6
 78
     2
 67
     7
 79
     3
170
     0
171
     0
290
     0
174
     0
 93
        1
 44
0.0
173
     0
291
     0
 45
0.0
1001
ACAD
1000
AcDbSavedByObjectVersion
1070
     0
  0
VISUALSTYLE
  5
2809
102
{ACAD_XDICTIONARY
360
28F4
102
}
102
{ACAD_REACTORS
330
27F3
102
}
330
27F3
100
AcDbVisualStyle
  2
JitterOff
 70
    20
 71
     2
 72
     2
 73
     0
 90
        0
 40
-0.6
 41
-30.0
 62
     5
 63
     7
421
 16777215
 74
     1
 91
        4
 64
     7
 65
   257
 75
     1
175
     1
 42
1.0
 92
       10
 66
     7
 43
1.0
 76
     1
 77
     6
 78
     2
 67
     7
 79
     5
170
     0
171
     0
290
     0
174
     0
 93
        1
 44
0.0
173
     0
291
     1
 45
0.0
1001
ACAD
1000
AcDbSavedByObjectVersion
1070
     0
  0
VISUALSTYLE
  5
2801
102
{ACAD_XDICTIONARY
360
28E4
102
}
102
{ACAD_REACTORS
330
27F3
102
}
330
27F3
100
AcDbVisualStyle
  2
Linepattern
 70
    14
 71
     2
 72
     2
 73
     0
 90
        0
 40
-0.6
 41
-30.0
 62
     5
 63
     7
421
 16777215
 74
     1
 91
        4
 64
     7
 65
   257
 75
     7
175
     7
 42
1.0
 92
        8
 66
     7
 43
1.0
 76
     1
 77
     6
 78
     2
 67
     7
 79
     5
170
     0
171
     0
290
     0
174
     0
 93
        1
 44
0.0
173
     0
291
     1
 45
0.0
1001
ACAD
1000
AcDbSavedByObjectVersion
1070
     0
  0
VISUALSTYLE
  5
280A
102
{ACAD_XDICTIONARY
360
28F6
102
}
102
{ACAD_REACTORS
330
27F3
102
}
330
27F3
100
AcDbVisualStyle
  2
OverhangOff
 70
    21
 71
     2
 72
     2
 73
     0
 90
        0
 40
-0.6
 41
-30.0
 62
     5
 63
     7
421
 16777215
 74
     1
 91
        4
 64
     7
 65
   257
 75
     1
175
     1
 42
1.0
 92
        9
 66
     7
 43
1.0
 76
     1
 77
     6
 78
     2
 67
     7
 79
     5
170
     0
171
     0
290
     0
174
     0
 93
        1
 44
0.0
173
     0
291
     1
 45
0.0
1001
ACAD
1000
AcDbSavedByObjectVersion
1070
     0
  0
VISUALSTYLE
  5
27FD
102
{ACAD_XDICTIONARY
360
28DC
102
}
102
{ACAD_REACTORS
330
27F3
102
}
330
27F3
100
AcDbVisualStyle
  2
Realistic
 70
     8
 71
     2
 72
     3
 73
     0
 90
        2
 40
-0.6
 41
30.0
 62
     5
 63
     7
421
 16777215
 74
     0
 91
        0
 64
     7
 65
   257
 75
     1
175
     1
 42
1.0
 92
        8
 66
   257
 43
1.0
 76
     1
 77
     6
 78
     2
 67
     7
 79
     3
170
     0
171
     0
290
     0
174
     0
 93
       13
 44
0.0
173
     0
291
     0
 45
0.0
1001
ACAD
1000
AcDbSavedByObjectVersion
1070
     0
  0
VISUALSTYLE
  5
2808
102
{ACAD_XDICTIONARY
360
28F2
102
}
102
{ACAD_REACTORS
330
27F3
102
}
330
27F3
100
AcDbVisualStyle
  2
Shaded
 70
    27
 71
     2
 72
     2
 73
     1
 90
        2
 40
-0.6
 41
30.0
 62
     5
 63
     7
421
 16777215
 74
     0
 91
        4
 64
     7
 65
   257
 75
     1
175
     1
 42
1.0
 92
        8
 66
   257
 43
1.0
 76
     1
 77
     6
 78
     2
 67
     8
425
  7895160
 79
     3
170
     0
171
     0
290
     0
174
     0
 93
        5
 44
0.0
173
     0
291
     0
 45
0.0
1001
ACAD
1000
AcDbSavedByObjectVersion
1070
     0
  0
VISUALSTYLE
  5
2807
102
{ACAD_XDICTIONARY
360
28F0
102
}
102
{ACAD_REACTORS
330
27F3
102
}
330
27F3
100
AcDbVisualStyle
  2
Shaded with edges
 70
    26
 71
     2
 72
     2
 73
     1
 90
        2
 40
-0.6
 41
30.0
 62
     5
 63
     7
421
 16777215
 74
     1
 91
       10
 64
     7
 65
   257
 75
     2
175
     1
 42
1.0
 92
        8
 66
   257
 43
1.0
 76
     1
 77
     6
 78
     2
 67
     7
 79
     3
170
     0
171
     0
290
     0
174
     0
 93
        5
 44
0.0
173
     0
291
     0
 45
0.0
1001
ACAD
1000
AcDbSavedByObjectVersion
1070
     0
  0
VISUALSTYLE
  5
2804
102
{ACAD_XDICTIONARY
360
28EA
102
}
102
{ACAD_REACTORS
330
27F3
102
}
330
27F3
100
AcDbVisualStyle
  2
Shades of Gray
 70
    23
 71
     2
 72
     2
 73
     3
 90
        0
 40
-0.6
 41
-30.0
 62
     5
 63
     7
421
 16777215
 74
     2
 91
        2
 64
     7
 65
     7
 75
     1
175
     1
 42
40.0
 92
        8
 66
     7
 43
1.0
 76
     1
 77
     6
 78
     2
 67
     7
 79
     3
170
     0
171
     0
290
     0
174
     0
 93
        1
 44
0.0
173
     0
291
     0
 45
0.0
1001
ACAD
1000
AcDbSavedByObjectVersion
1070
     0
  0
VISUALSTYLE
  5
2805
102
{ACAD_XDICTIONARY
360
28EC
102
}
102
{ACAD_REACTORS
330
27F3
102
}
330
27F3
100
AcDbVisualStyle
  2
Sketchy
 70
    24
 71
     1
 72
     2
 73
     2
 90
        0
 40
-0.6
 41
-30.0
 62
     5
 63
     7
421
 16777215
 74
     2
 91
        2
 64
     7
 65
     7
 75
     1
175
     1
 42
40.0
 92
       11
 66
     7
 43
1.0
 76
     1
 77
     6
 78
     2
 67
     7
 79
     6
170
     0
171
     0
290
     0
174
     0
 93
        1
 44
0.0
173
     0
291
     0
 45
0.0
1001
ACAD
1000
AcDbSavedByObjectVersion
1070
     0
  0
VISUALSTYLE
  5
2800
102
{ACAD_XDICTIONARY
360
28E2
102
}
102
{ACAD_REACTORS
330
27F3
102
}
330
27F3
100
AcDbVisualStyle
  2
Thicken
 70
    13
 71
     2
 72
     2
 73
     0
 90
        0
 40
-0.6
 41
-30.0
 62
     5
 63
     7
421
 16777215
 74
     1
 91
        4
 64
     7
 65
   257
 75
     1
175
     1
 42
1.0
 92
       12
 66
     7
 43
1.0
 76
     1
 77
     6
 78
     2
 67
     7
 79
     5
170
     0
171
     0
290
     0
174
     0
 93
        1
 44
0.0
173
     0
291
     1
 45
0.0
1001
ACAD
1000
AcDbSavedByObjectVersion
1070
     0
  0
VISUALSTYLE
  5
27FA
102
{ACAD_XDICTIONARY
360
28D6
102
}
102
{ACAD_REACTORS
330
27F3
102
}
330
27F3
100
AcDbVisualStyle
  2
Wireframe
 70
     5
 71
     0
 72
     2
 73
     0
 90
        0
 40
-0.6
 41
-30.0
 62
     5
 63
     7
421
 16777215
 74
     1
 91
        4
 64
     7
 65
   257
 75
     1
175
     1
 42
1.0
 92
        0
 66
   257
 43
1.0
 76
     1
 77
     6
 78
     2
 67
     7
 79
     3
170
     0
171
     0
290
     0
174
     0
 93
        1
 44
0.0
173
     0
291
     0
 45
0.0
1001
ACAD
1000
AcDbSavedByObjectVersion
1070
     0
  0
VISUALSTYLE
  5
2806
102
{ACAD_XDICTIONARY
360
28EE
102
}
102
{ACAD_REACTORS
330
27F3
102
}
330
27F3
100
AcDbVisualStyle
  2
X-Ray
 70
    25
 71
     2
 72
     2
 73
     1
 90
        1
 40
0.5
 41
-30.0
 62
     5
 63
     7
421
 16777215
 74
     1
 91
        0
 64
     7
 65
   257
 75
     1
175
     1
 42
1.0
 92
        8
 66
     7
 43
1.0
 76
     1
 77
     6
 78
     2
 67
     7
 79
     3
170
     0
171
     0
290
     0
174
     0
 93
       13
 44
0.0
173
     0
291
     0
 45
0.0
1001
ACAD
1000
AcDbSavedByObjectVersion
1070
     0
  0
DICTIONARYVAR
  5
28C2
102
{ACAD_REACTORS
330
5E
102
}
330
5E
100
DictionaryVariables
280
     0
  1
1:1
  0
DICTIONARYVAR
  5
28C0
102
{ACAD_REACTORS
330
5E
102
}
330
5E
100
DictionaryVariables
280
     0
  1
STANDARD
  0
DICTIONARYVAR
  5
84
102
{ACAD_REACTORS
330
5E
102
}
330
5E
100
DictionaryVariables
280
     0
  1
STANDARD
  0
DICTIONARYVAR
  5
5F
102
{ACAD_REACTORS
330
5E
102
}
330
5E
100
DictionaryVariables
280
     0
  1
2
  0
DICTIONARYVAR
  5
63
102
{ACAD_REACTORS
330
5E
102
}
330
5E
100
DictionaryVariables
280
     0
  1
1
  0
DICTIONARYVAR
  5
28C4
102
{ACAD_REACTORS
330
5E
102
}
330
5E
100
DictionaryVariables
280
     0
  1
1
  0
DICTIONARYVAR
  5
28C5
102
{ACAD_REACTORS
330
5E
102
}
330
5E
100
DictionaryVariables
280
     0
  1
15
  0
DICTIONARYVAR
  5
28C3
102
{ACAD_REACTORS
330
5E
102
}
330
5E
100
DictionaryVariables
280
     0
  1
0
  0
DICTIONARYVAR
  5
28C1
102
{ACAD_REACTORS
330
5E
102
}
330
5E
100
DictionaryVariables
280
     0
  1
0
  0
DICTIONARY
  5
27E4
330
27E3
100
AcDbDictionary
280
     1
281
     1
  3
BUMPTILE
360
27E6
  3
DIFFUSETILE
360
27E5
  3
OPACITYTILE
360
27E9
  3
REFLECTIONTILE
360
27E8
  3
REFRACTIONTILE
360
27EA
  3
SPECULARTILE
360
27E7
  0
DICTIONARY
  5
27DC
330
27DB
100
AcDbDictionary
280
     1
281
     1
  3
BUMPTILE
360
27DE
  3
DIFFUSETILE
360
27DD
  3
OPACITYTILE
360
27E1
  3
REFLECTIONTILE
360
27E0
  3
REFRACTIONTILE
360
27E2
  3
SPECULARTILE
360
27DF
  0
DICTIONARY
  5
27EC
330
27EB
100
AcDbDictionary
280
     1
281
     1
  3
BUMPTILE
360
27EE
  3
DIFFUSETILE
360
27ED
  3
OPACITYTILE
360
27F1
  3
REFLECTIONTILE
360
27F0
  3
REFRACTIONTILE
360
27F2
  3
SPECULARTILE
360
27EF
  0
DICTIONARY
  5
28C7
330
7F
100
AcDbDictionary
280
     1
281
     1
  3
ACAD_ROUNDTRIP_2008_TABLESTYLE_CELLSTYLEMAP
360
28C8
  0
DICTIONARY
  5
28D4
330
27F9
100
AcDbDictionary
280
     1
281
     1
  3
ACAD_XREC_ROUNDTRIP
360
28D5
  0
DICTIONARY
  5
28D2
330
27F8
100
AcDbDictionary
280
     1
281
     1
  3
ACAD_XREC_ROUNDTRIP
360
28D3
  0
DICTIONARY
  5
28E0
330
27FF
100
AcDbDictionary
280
     1
281
     1
  3
ACAD_XREC_ROUNDTRIP
360
28E1
  0
DICTIONARY
  5
28E8
330
2803
100
AcDbDictionary
280
     1
281
     1
  3
ACAD_XREC_ROUNDTRIP
360
28E9
  0
DICTIONARY
  5
28DA
330
27FC
100
AcDbDictionary
280
     1
281
     1
  3
ACAD_XREC_ROUNDTRIP
360
28DB
  0
DICTIONARY
  5
28DE
330
27FE
100
AcDbDictionary
280
     1
281
     1
  3
ACAD_XREC_ROUNDTRIP
360
28DF
  0
DICTIONARY
  5
28F8
330
280B
100
AcDbDictionary
280
     1
281
     1
  3
ACAD_XREC_ROUNDTRIP
360
28F9
  0
DICTIONARY
  5
28E6
330
2802
100
AcDbDictionary
280
     1
281
     1
  3
ACAD_XREC_ROUNDTRIP
360
28E7
  0
DICTIONARY
  5
28CA
330
27F4
100
AcDbDictionary
280
     1
281
     1
  3
ACAD_XREC_ROUNDTRIP
360
28CB
  0
DICTIONARY
  5
28CC
330
27F5
100
AcDbDictionary
280
     1
281
     1
  3
ACAD_XREC_ROUNDTRIP
360
28CD
  0
DICTIONARY
  5
28CE
330
27F6
100
AcDbDictionary
280
     1
281
     1
  3
ACAD_XREC_ROUNDTRIP
360
28CF
  0
DICTIONARY
  5
28D0
330
27F7
100
AcDbDictionary
280
     1
281
     1
  3
ACAD_XREC_ROUNDTRIP
360
28D1
  0
DICTIONARY
  5
28D8
330
27FB
100
AcDbDictionary
280
     1
281
     1
  3
ACAD_XREC_ROUNDTRIP
360
28D9
  0
DICTIONARY
  5
28F4
330
2809
100
AcDbDictionary
280
     1
281
     1
  3
ACAD_XREC_ROUNDTRIP
360
28F5
  0
DICTIONARY
  5
28E4
330
2801
100
AcDbDictionary
280
     1
281
     1
  3
ACAD_XREC_ROUNDTRIP
360
28E5
  0
DICTIONARY
  5
28F6
330
280A
100
AcDbDictionary
280
     1
281
     1
  3
ACAD_XREC_ROUNDTRIP
360
28F7
  0
DICTIONARY
  5
28DC
330
27FD
100
AcDbDictionary
280
     1
281
     1
  3
ACAD_XREC_ROUNDTRIP
360
28DD
  0
DICTIONARY
  5
28F2
330
2808
100
AcDbDictionary
280
     1
281
     1
  3
ACAD_XREC_ROUNDTRIP
360
28F3
  0
DICTIONARY
  5
28F0
330
2807
100
AcDbDictionary
280
     1
281
     1
  3
ACAD_XREC_ROUNDTRIP
360
28F1
  0
DICTIONARY
  5
28EA
330
2804
100
AcDbDictionary
280
     1
281
     1
  3
ACAD_XREC_ROUNDTRIP
360
28EB
  0
DICTIONARY
  5
28EC
330
2805
100
AcDbDictionary
280
     1
281
     1
  3
ACAD_XREC_ROUNDTRIP
360
28ED
  0
DICTIONARY
  5
28E2
330
2800
100
AcDbDictionary
280
     1
281
     1
  3
ACAD_XREC_ROUNDTRIP
360
28E3
  0
DICTIONARY
  5
28D6
330
27FA
100
AcDbDictionary
280
     1
281
     1
  3
ACAD_XREC_ROUNDTRIP
360
28D7
  0
DICTIONARY
  5
28EE
330
2806
100
AcDbDictionary
280
     1
281
     1
  3
ACAD_XREC_ROUNDTRIP
360
28EF
  0
XRECORD
  5
27E6
102
{ACAD_REACTORS
330
27E4
102
}
330
27E4
100
AcDbXrecord
280
     1
270
     1
271
     1
  0
XRECORD
  5
27E5
102
{ACAD_REACTORS
330
27E4
102
}
330
27E4
100
AcDbXrecord
280
     1
270
     1
271
     1
  0
XRECORD
  5
27E9
102
{ACAD_REACTORS
330
27E4
102
}
330
27E4
100
AcDbXrecord
280
     1
270
     1
271
     1
  0
XRECORD
  5
27E8
102
{ACAD_REACTORS
330
27E4
102
}
330
27E4
100
AcDbXrecord
280
     1
270
     1
271
     1
  0
XRECORD
  5
27EA
102
{ACAD_REACTORS
330
27E4
102
}
330
27E4
100
AcDbXrecord
280
     1
270
     1
271
     1
  0
XRECORD
  5
27E7
102
{ACAD_REACTORS
330
27E4
102
}
330
27E4
100
AcDbXrecord
280
     1
270
     1
271
     1
  0
XRECORD
  5
27DE
102
{ACAD_REACTORS
330
27DC
102
}
330
27DC
100
AcDbXrecord
280
     1
270
     1
271
     1
  0
XRECORD
  5
27DD
102
{ACAD_REACTORS
330
27DC
102
}
330
27DC
100
AcDbXrecord
280
     1
270
     1
271
     1
  0
XRECORD
  5
27E1
102
{ACAD_REACTORS
330
27DC
102
}
330
27DC
100
AcDbXrecord
280
     1
270
     1
271
     1
  0
XRECORD
  5
27E0
102
{ACAD_REACTORS
330
27DC
102
}
330
27DC
100
AcDbXrecord
280
     1
270
     1
271
     1
  0
XRECORD
  5
27E2
102
{ACAD_REACTORS
330
27DC
102
}
330
27DC
100
AcDbXrecord
280
     1
270
     1
271
     1
  0
XRECORD
  5
27DF
102
{ACAD_REACTORS
330
27DC
102
}
330
27DC
100
AcDbXrecord
280
     1
270
     1
271
     1
  0
XRECORD
  5
27EE
102
{ACAD_REACTORS
330
27EC
102
}
330
27EC
100
AcDbXrecord
280
     1
270
     1
271
     1
  0
XRECORD
  5
27ED
102
{ACAD_REACTORS
330
27EC
102
}
330
27EC
100
AcDbXrecord
280
     1
270
     1
271
     1
  0
XRECORD
  5
27F1
102
{ACAD_REACTORS
330
27EC
102
}
330
27EC
100
AcDbXrecord
280
     1
270
     1
271
     1
  0
XRECORD
  5
27F0
102
{ACAD_REACTORS
330
27EC
102
}
330
27EC
100
AcDbXrecord
280
     1
270
     1
271
     1
  0
XRECORD
  5
27F2
102
{ACAD_REACTORS
330
27EC
102
}
330
27EC
100
AcDbXrecord
280
     1
270
     1
271
     1
  0
XRECORD
  5
27EF
102
{ACAD_REACTORS
330
27EC
102
}
330
27EC
100
AcDbXrecord
280
     1
270
     1
271
     1
  0
CELLSTYLEMAP
  5
28C8
102
{ACAD_REACTORS
330
28C7
102
}
330
28C7
100
AcDbCellStyleMap
 90
        3
300
CELLSTYLE
  1
TABLEFORMAT_BEGIN
 90
        5
170
     1
 91
        0
 92
    32768
 62
   257
 93
        1
300
CONTENTFORMAT
  1
CONTENTFORMAT_BEGIN
 90
        0
 91
        0
 92
        4
 93
        0
300

 40
0.0
140
1.0
 94
        5
 62
     0
340
11
144
6.0
309
CONTENTFORMAT_END
171
     1
301
MARGIN
  1
CELLMARGIN_BEGIN
 40
1.5
 40
1.5
 40
1.5
 40
1.5
 40
0.18
 40
0.18
309
CELLMARGIN_END
 94
        6
 95
        1
302
GRIDFORMAT
  1
GRIDFORMAT_BEGIN
 90
        0
 91
        1
 62
     0
 92
       -2
340
0
 93
        0
 40
0.045
309
GRIDFORMAT_END
 95
        2
302
GRIDFORMAT
  1
GRIDFORMAT_BEGIN
 90
        0
 91
        1
 62
     0
 92
       -2
340
0
 93
        0
 40
0.045
309
GRIDFORMAT_END
 95
        4
302
GRIDFORMAT
  1
GRIDFORMAT_BEGIN
 90
        0
 91
        1
 62
     0
 92
       -2
340
0
 93
        0
 40
0.045
309
GRIDFORMAT_END
 95
        8
302
GRIDFORMAT
  1
GRIDFORMAT_BEGIN
 90
        0
 91
        1
 62
     0
 92
       -2
340
0
 93
        0
 40
0.045
309
GRIDFORMAT_END
 95
       16
302
GRIDFORMAT
  1
GRIDFORMAT_BEGIN
 90
        0
 91
        1
 62
     0
 92
       -2
340
0
 93
        0
 40
0.045
309
GRIDFORMAT_END
 95
       32
302
GRIDFORMAT
  1
GRIDFORMAT_BEGIN
 90
        0
 91
        1
 62
     0
 92
       -2
340
0
 93
        0
 40
0.045
309
GRIDFORMAT_END
309
TABLEFORMAT_END
  1
CELLSTYLE_BEGIN
 90
        1
 91
        1
300
_TITLE
309
CELLSTYLE_END
300
CELLSTYLE
  1
TABLEFORMAT_BEGIN
 90
        5
170
     1
 91
        0
 92
        0
 62
   257
 93
        1
300
CONTENTFORMAT
  1
CONTENTFORMAT_BEGIN
 90
        0
 91
        0
 92
        4
 93
        0
300

 40
0.0
140
1.0
 94
        5
 62
     0
340
11
144
4.5
309
CONTENTFORMAT_END
171
     1
301
MARGIN
  1
CELLMARGIN_BEGIN
 40
1.5
 40
1.5
 40
1.5
 40
1.5
 40
0.18
 40
0.18
309
CELLMARGIN_END
 94
        6
 95
        1
302
GRIDFORMAT
  1
GRIDFORMAT_BEGIN
 90
        0
 91
        1
 62
     0
 92
       -2
340
0
 93
        0
 40
0.045
309
GRIDFORMAT_END
 95
        2
302
GRIDFORMAT
  1
GRIDFORMAT_BEGIN
 90
        0
 91
        1
 62
     0
 92
       -2
340
0
 93
        0
 40
0.045
309
GRIDFORMAT_END
 95
        4
302
GRIDFORMAT
  1
GRIDFORMAT_BEGIN
 90
        0
 91
        1
 62
     0
 92
       -2
340
0
 93
        0
 40
0.045
309
GRIDFORMAT_END
 95
        8
302
GRIDFORMAT
  1
GRIDFORMAT_BEGIN
 90
        0
 91
        1
 62
     0
 92
       -2
340
0
 93
        0
 40
0.045
309
GRIDFORMAT_END
 95
       16
302
GRIDFORMAT
  1
GRIDFORMAT_BEGIN
 90
        0
 91
        1
 62
     0
 92
       -2
340
0
 93
        0
 40
0.045
309
GRIDFORMAT_END
 95
       32
302
GRIDFORMAT
  1
GRIDFORMAT_BEGIN
 90
        0
 91
        1
 62
     0
 92
       -2
340
0
 93
        0
 40
0.045
309
GRIDFORMAT_END
309
TABLEFORMAT_END
  1
CELLSTYLE_BEGIN
 90
        2
 91
        1
300
_HEADER
309
CELLSTYLE_END
300
CELLSTYLE
  1
TABLEFORMAT_BEGIN
 90
        5
170
     1
 91
        0
 92
        0
 62
   257
 93
        1
300
CONTENTFORMAT
  1
CONTENTFORMAT_BEGIN
 90
        0
 91
        0
 92
        4
 93
        0
300

 40
0.0
140
1.0
 94
        2
 62
     0
340
11
144
4.5
309
CONTENTFORMAT_END
171
     1
301
MARGIN
  1
CELLMARGIN_BEGIN
 40
1.5
 40
1.5
 40
1.5
 40
1.5
 40
0.18
 40
0.18
309
CELLMARGIN_END
 94
        6
 95
        1
302
GRIDFORMAT
  1
GRIDFORMAT_BEGIN
 90
        0
 91
        1
 62
     0
 92
       -2
340
0
 93
        0
 40
0.045
309
GRIDFORMAT_END
 95
        2
302
GRIDFORMAT
  1
GRIDFORMAT_BEGIN
 90
        0
 91
        1
 62
     0
 92
       -2
340
0
 93
        0
 40
0.045
309
GRIDFORMAT_END
 95
        4
302
GRIDFORMAT
  1
GRIDFORMAT_BEGIN
 90
        0
 91
        1
 62
     0
 92
       -2
340
0
 93
        0
 40
0.045
309
GRIDFORMAT_END
 95
        8
302
GRIDFORMAT
  1
GRIDFORMAT_BEGIN
 90
        0
 91
        1
 62
     0
 92
       -2
340
0
 93
        0
 40
0.045
309
GRIDFORMAT_END
 95
       16
302
GRIDFORMAT
  1
GRIDFORMAT_BEGIN
 90
        0
 91
        1
 62
     0
 92
       -2
340
0
 93
        0
 40
0.045
309
GRIDFORMAT_END
 95
       32
302
GRIDFORMAT
  1
GRIDFORMAT_BEGIN
 90
        0
 91
        1
 62
     0
 92
       -2
340
0
 93
        0
 40
0.045
309
GRIDFORMAT_END
309
TABLEFORMAT_END
  1
CELLSTYLE_BEGIN
 90
        3
 91
        2
300
_DATA
309
CELLSTYLE_END
  0
XRECORD
  5
28D5
102
{ACAD_REACTORS
330
28D4
102
}
330
28D4
100
AcDbXrecord
280
     1
102
RTVSPropertyOp0
 70
     1
102
RTVSPropertyOp1
 70
     1
102
RTVSPropertyOp2
 70
     1
102
RTVSPropertyOp3
 70
     1
102
RTVSPropertyOp4
 70
     1
102
RTVSPropertyOp5
 70
     1
102
RTVSPropertyOp6
 70
     1
102
RTVSPropertyOp7
 70
     1
102
RTVSPropertyOp8
 70
     1
102
RTVSPropertyOp9
 70
     1
102
RTVSPropertyOp10
 70
     1
102
RTVSPropertyOp11
 70
     1
102
RTVSPropertyOp12
 70
     1
102
RTVSPropertyOp13
 70
     1
102
RTVSPropertyOp14
 70
     1
102
RTVSPropertyOp15
 70
     1
102
RTVSPropertyOp16
 70
     1
102
RTVSPropertyOp17
 70
     1
102
RTVSPropertyOp18
 70
     1
102
RTVSPropertyOp19
 70
     1
102
RTVSPropertyOp20
 70
     1
102
RTVSPropertyOp21
 70
     1
102
RTVSPropertyOp22
 70
     1
102
RTVSPropertyOp23
 70
     1
102
RTVSPropertyOp24
 70
     1
102
RTVSPropertyOp25
 70
     1
102
RTVSPropertyOp26
 70
     1
102
RTVSPropertyOp27
 70
     1
102
RTVSPropertyOp28
 70
     1
102
RTVSPropertyOp29
 70
     1
102
RTVSPropertyOp30
 70
     1
102
RTVSPropertyOp31
 70
     1
102
RTVSPropertyOp32
 70
     1
  0
XRECORD
  5
28D3
102
{ACAD_REACTORS
330
28D2
102
}
330
28D2
100
AcDbXrecord
280
     1
102
RTVSPropertyOp0
 70
     1
102
RTVSPropertyOp1
 70
     1
102
RTVSPropertyOp2
 70
     1
102
RTVSPropertyOp3
 70
     1
102
RTVSPropertyOp4
 70
     1
102
RTVSPropertyOp5
 70
     1
102
RTVSPropertyOp6
 70
     1
102
RTVSPropertyOp7
 70
     1
102
RTVSPropertyOp8
 70
     1
102
RTVSPropertyOp9
 70
     1
102
RTVSPropertyOp10
 70
     1
102
RTVSPropertyOp11
 70
     1
102
RTVSPropertyOp12
 70
     1
102
RTVSPropertyOp13
 70
     1
102
RTVSPropertyOp14
 70
     1
102
RTVSPropertyOp15
 70
     1
102
RTVSPropertyOp16
 70
     1
102
RTVSPropertyOp17
 70
     1
102
RTVSPropertyOp18
 70
     1
102
RTVSPropertyOp19
 70
     1
102
RTVSPropertyOp20
 70
     1
102
RTVSPropertyOp21
 70
     1
102
RTVSPropertyOp22
 70
     1
102
RTVSPropertyOp23
 70
     1
102
RTVSPropertyOp24
 70
     1
102
RTVSPropertyOp25
 70
     1
102
RTVSPropertyOp26
 70
     1
102
RTVSPropertyOp27
 70
     1
102
RTVSPropertyOp28
 70
     1
102
RTVSPropertyOp29
 70
     1
102
RTVSPropertyOp30
 70
     1
102
RTVSPropertyOp31
 70
     1
102
RTVSPropertyOp32
 70
     1
  0
XRECORD
  5
28E1
102
{ACAD_REACTORS
330
28E0
102
}
330
28E0
100
AcDbXrecord
280
     1
102
RTVSPropertyOp0
 70
     1
102
RTVSPropertyOp1
 70
     1
102
RTVSPropertyOp2
 70
     1
102
RTVSPropertyOp3
 70
     1
102
RTVSPropertyOp4
 70
     1
102
RTVSPropertyOp5
 70
     1
102
RTVSPropertyOp6
 70
     1
102
RTVSPropertyOp7
 70
     1
102
RTVSPropertyOp8
 70
     1
102
RTVSPropertyOp9
 70
     1
102
RTVSPropertyOp10
 70
     1
102
RTVSPropertyOp11
 70
     1
102
RTVSPropertyOp12
 70
     1
102
RTVSPropertyOp13
 70
     1
102
RTVSPropertyOp14
 70
     1
102
RTVSPropertyOp15
 70
     1
102
RTVSPropertyOp16
 70
     1
102
RTVSPropertyOp17
 70
     1
102
RTVSPropertyOp18
 70
     1
102
RTVSPropertyOp19
 70
     1
102
RTVSPropertyOp20
 70
     1
102
RTVSPropertyOp21
 70
     1
102
RTVSPropertyOp22
 70
     1
102
RTVSPropertyOp23
 70
     1
102
RTVSPropertyOp24
 70
     1
102
RTVSPropertyOp25
 70
     1
102
RTVSPropertyOp26
 70
     1
102
RTVSPropertyOp27
 70
     1
102
RTVSPropertyOp28
 70
     1
102
RTVSPropertyOp29
 70
     1
102
RTVSPropertyOp30
 70
     1
102
RTVSPropertyOp31
 70
     1
102
RTVSPropertyOp32
 70
     1
  0
XRECORD
  5
28E9
102
{ACAD_REACTORS
330
28E8
102
}
330
28E8
100
AcDbXrecord
280
     1
102
RTVSPropertyOp0
 70
     1
102
RTVSPropertyOp1
 70
     1
102
RTVSPropertyOp2
 70
     1
102
RTVSPropertyOp3
 70
     1
102
RTVSPropertyOp4
 70
     1
102
RTVSPropertyOp5
 70
     1
102
RTVSPropertyOp6
 70
     1
102
RTVSPropertyOp7
 70
     1
102
RTVSPropertyOp8
 70
     1
102
RTVSPropertyOp9
 70
     1
102
RTVSPropertyOp10
 70
     1
102
RTVSPropertyOp11
 70
     1
102
RTVSPropertyOp12
 70
     1
102
RTVSPropertyOp13
 70
     1
102
RTVSPropertyOp14
 70
     1
102
RTVSPropertyOp15
 70
     1
102
RTVSPropertyOp16
 70
     1
102
RTVSPropertyOp17
 70
     1
102
RTVSPropertyOp18
 70
     1
102
RTVSPropertyOp19
 70
     1
102
RTVSPropertyOp20
 70
     1
102
RTVSPropertyOp21
 70
     1
102
RTVSPropertyOp22
 70
     1
102
RTVSPropertyOp23
 70
     1
102
RTVSPropertyOp24
 70
     1
102
RTVSPropertyOp25
 70
     1
102
RTVSPropertyOp26
 70
     1
102
RTVSPropertyOp27
 70
     1
102
RTVSPropertyOp28
 70
     1
102
RTVSPropertyOp29
 70
     1
102
RTVSPropertyOp30
 70
     1
102
RTVSPropertyOp31
 70
     1
102
RTVSPropertyOp32
 70
     1
  0
XRECORD
  5
28DB
102
{ACAD_REACTORS
330
28DA
102
}
330
28DA
100
AcDbXrecord
280
     1
102
RTVSPropertyOp0
 70
     1
102
RTVSPropertyOp1
 70
     1
102
RTVSPropertyOp2
 70
     1
102
RTVSPropertyOp3
 70
     1
102
RTVSPropertyOp4
 70
     1
102
RTVSPropertyOp5
 70
     1
102
RTVSPropertyOp6
 70
     1
102
RTVSPropertyOp7
 70
     1
102
RTVSPropertyOp8
 70
     1
102
RTVSPropertyOp9
 70
     1
102
RTVSPropertyOp10
 70
     1
102
RTVSPropertyOp11
 70
     1
102
RTVSPropertyOp12
 70
     1
102
RTVSPropertyOp13
 70
     1
102
RTVSPropertyOp14
 70
     1
102
RTVSPropertyOp15
 70
     1
102
RTVSPropertyOp16
 70
     1
102
RTVSPropertyOp17
 70
     1
102
RTVSPropertyOp18
 70
     1
102
RTVSPropertyOp19
 70
     1
102
RTVSPropertyOp20
 70
     1
102
RTVSPropertyOp21
 70
     1
102
RTVSPropertyOp22
 70
     1
102
RTVSPropertyOp23
 70
     1
102
RTVSPropertyOp24
 70
     1
102
RTVSPropertyOp25
 70
     1
102
RTVSPropertyOp26
 70
     1
102
RTVSPropertyOp27
 70
     1
102
RTVSPropertyOp28
 70
     1
102
RTVSPropertyOp29
 70
     1
102
RTVSPropertyOp30
 70
     1
102
RTVSPropertyOp31
 70
     1
102
RTVSPropertyOp32
 70
     1
  0
XRECORD
  5
28DF
102
{ACAD_REACTORS
330
28DE
102
}
330
28DE
100
AcDbXrecord
280
     1
102
RTVSPropertyOp0
 70
     1
102
RTVSPropertyOp1
 70
     1
102
RTVSPropertyOp2
 70
     1
102
RTVSPropertyOp3
 70
     1
102
RTVSPropertyOp4
 70
     1
102
RTVSPropertyOp5
 70
     1
102
RTVSPropertyOp6
 70
     1
102
RTVSPropertyOp7
 70
     1
102
RTVSPropertyOp8
 70
     1
102
RTVSPropertyOp9
 70
     1
102
RTVSPropertyOp10
 70
     1
102
RTVSPropertyOp11
 70
     1
102
RTVSPropertyOp12
 70
     1
102
RTVSPropertyOp13
 70
     1
102
RTVSPropertyOp14
 70
     1
102
RTVSPropertyOp15
 70
     1
102
RTVSPropertyOp16
 70
     1
102
RTVSPropertyOp17
 70
     1
102
RTVSPropertyOp18
 70
     1
102
RTVSPropertyOp19
 70
     1
102
RTVSPropertyOp20
 70
     1
102
RTVSPropertyOp21
 70
     1
102
RTVSPropertyOp22
 70
     1
102
RTVSPropertyOp23
 70
     1
102
RTVSPropertyOp24
 70
     1
102
RTVSPropertyOp25
 70
     1
102
RTVSPropertyOp26
 70
     1
102
RTVSPropertyOp27
 70
     1
102
RTVSPropertyOp28
 70
     1
102
RTVSPropertyOp29
 70
     1
102
RTVSPropertyOp30
 70
     1
102
RTVSPropertyOp31
 70
     1
102
RTVSPropertyOp32
 70
     1
  0
XRECORD
  5
28F9
102
{ACAD_REACTORS
330
28F8
102
}
330
28F8
100
AcDbXrecord
280
     1
102
RTVSPropertyOp0
 70
     0
102
RTVSPropertyOp1
 70
     0
102
RTVSPropertyOp2
 70
     0
102
RTVSPropertyOp3
 70
     0
102
RTVSPropertyOp4
 70
     0
102
RTVSPropertyOp5
 70
     0
102
RTVSPropertyOp6
 70
     0
102
RTVSPropertyOp7
 70
     0
102
RTVSPropertyOp8
 70
     0
102
RTVSPropertyOp9
 70
     0
102
RTVSPropertyOp10
 70
     0
102
RTVSPropertyOp11
 70
     0
102
RTVSPropertyOp12
 70
     0
102
RTVSPropertyOp13
 70
     0
102
RTVSPropertyOp14
 70
     2
102
RTVSPropertyOp15
 70
     0
102
RTVSPropertyOp16
 70
     0
102
RTVSPropertyOp17
 70
     0
102
RTVSPropertyOp18
 70
     0
102
RTVSPropertyOp19
 70
     0
102
RTVSPropertyOp20
 70
     0
102
RTVSPropertyOp21
 70
     0
102
RTVSPropertyOp22
 70
     0
102
RTVSPropertyOp23
 70
     0
102
RTVSPropertyOp24
 70
     0
102
RTVSPropertyOp25
 70
     0
102
RTVSPropertyOp26
 70
     0
102
RTVSPropertyOp27
 70
     0
102
RTVSPropertyOp28
 70
     0
102
RTVSPropertyOp29
 70
     0
102
RTVSPropertyOp30
 70
     0
102
RTVSPropertyOp31
 70
     0
102
RTVSPropertyOp32
 70
     0
  0
XRECORD
  5
28E7
102
{ACAD_REACTORS
330
28E6
102
}
330
28E6
100
AcDbXrecord
280
     1
102
RTVSPropertyOp0
 70
     1
102
RTVSPropertyOp1
 70
     1
102
RTVSPropertyOp2
 70
     1
102
RTVSPropertyOp3
 70
     1
102
RTVSPropertyOp4
 70
     1
102
RTVSPropertyOp5
 70
     1
102
RTVSPropertyOp6
 70
     1
102
RTVSPropertyOp7
 70
     1
102
RTVSPropertyOp8
 70
     1
102
RTVSPropertyOp9
 70
     1
102
RTVSPropertyOp10
 70
     1
102
RTVSPropertyOp11
 70
     1
102
RTVSPropertyOp12
 70
     1
102
RTVSPropertyOp13
 70
     1
102
RTVSPropertyOp14
 70
     1
102
RTVSPropertyOp15
 70
     1
102
RTVSPropertyOp16
 70
     1
102
RTVSPropertyOp17
 70
     1
102
RTVSPropertyOp18
 70
     1
102
RTVSPropertyOp19
 70
     1
102
RTVSPropertyOp20
 70
     1
102
RTVSPropertyOp21
 70
     1
102
RTVSPropertyOp22
 70
     1
102
RTVSPropertyOp23
 70
     1
102
RTVSPropertyOp24
 70
     1
102
RTVSPropertyOp25
 70
     1
102
RTVSPropertyOp26
 70
     1
102
RTVSPropertyOp27
 70
     1
102
RTVSPropertyOp28
 70
     1
102
RTVSPropertyOp29
 70
     1
102
RTVSPropertyOp30
 70
     1
102
RTVSPropertyOp31
 70
     1
102
RTVSPropertyOp32
 70
     1
  0
XRECORD
  5
28CB
102
{ACAD_REACTORS
330
28CA
102
}
330
28CA
100
AcDbXrecord
280
     1
102
RTVSPropertyOp0
 70
     1
102
RTVSPropertyOp1
 70
     1
102
RTVSPropertyOp2
 70
     1
102
RTVSPropertyOp3
 70
     1
102
RTVSPropertyOp4
 70
     1
102
RTVSPropertyOp5
 70
     1
102
RTVSPropertyOp6
 70
     1
102
RTVSPropertyOp7
 70
     1
102
RTVSPropertyOp8
 70
     1
102
RTVSPropertyOp9
 70
     1
102
RTVSPropertyOp10
 70
     1
102
RTVSPropertyOp11
 70
     1
102
RTVSPropertyOp12
 70
     1
102
RTVSPropertyOp13
 70
     1
102
RTVSPropertyOp14
 70
     1
102
RTVSPropertyOp15
 70
     1
102
RTVSPropertyOp16
 70
     1
102
RTVSPropertyOp17
 70
     1
102
RTVSPropertyOp18
 70
     1
102
RTVSPropertyOp19
 70
     1
102
RTVSPropertyOp20
 70
     1
102
RTVSPropertyOp21
 70
     1
102
RTVSPropertyOp22
 70
     1
102
RTVSPropertyOp23
 70
     1
102
RTVSPropertyOp24
 70
     1
102
RTVSPropertyOp25
 70
     1
102
RTVSPropertyOp26
 70
     1
102
RTVSPropertyOp27
 70
     1
102
RTVSPropertyOp28
 70
     1
102
RTVSPropertyOp29
 70
     1
102
RTVSPropertyOp30
 70
     1
102
RTVSPropertyOp31
 70
     1
102
RTVSPropertyOp32
 70
     1
  0
XRECORD
  5
28CD
102
{ACAD_REACTORS
330
28CC
102
}
330
28CC
100
AcDbXrecord
280
     1
102
RTVSPropertyOp0
 70
     1
102
RTVSPropertyOp1
 70
     1
102
RTVSPropertyOp2
 70
     1
102
RTVSPropertyOp3
 70
     1
102
RTVSPropertyOp4
 70
     1
102
RTVSPropertyOp5
 70
     1
102
RTVSPropertyOp6
 70
     1
102
RTVSPropertyOp7
 70
     1
102
RTVSPropertyOp8
 70
     1
102
RTVSPropertyOp9
 70
     1
102
RTVSPropertyOp10
 70
     1
102
RTVSPropertyOp11
 70
     1
102
RTVSPropertyOp12
 70
     1
102
RTVSPropertyOp13
 70
     1
102
RTVSPropertyOp14
 70
     1
102
RTVSPropertyOp15
 70
     1
102
RTVSPropertyOp16
 70
     1
102
RTVSPropertyOp17
 70
     1
102
RTVSPropertyOp18
 70
     1
102
RTVSPropertyOp19
 70
     1
102
RTVSPropertyOp20
 70
     1
102
RTVSPropertyOp21
 70
     1
102
RTVSPropertyOp22
 70
     1
102
RTVSPropertyOp23
 70
     1
102
RTVSPropertyOp24
 70
     1
102
RTVSPropertyOp25
 70
     1
102
RTVSPropertyOp26
 70
     1
102
RTVSPropertyOp27
 70
     1
102
RTVSPropertyOp28
 70
     1
102
RTVSPropertyOp29
 70
     1
102
RTVSPropertyOp30
 70
     1
102
RTVSPropertyOp31
 70
     1
102
RTVSPropertyOp32
 70
     1
  0
XRECORD
  5
28CF
102
{ACAD_REACTORS
330
28CE
102
}
330
28CE
100
AcDbXrecord
280
     1
102
RTVSPropertyOp0
 70
     1
102
RTVSPropertyOp1
 70
     1
102
RTVSPropertyOp2
 70
     1
102
RTVSPropertyOp3
 70
     1
102
RTVSPropertyOp4
 70
     1
102
RTVSPropertyOp5
 70
     1
102
RTVSPropertyOp6
 70
     1
102
RTVSPropertyOp7
 70
     1
102
RTVSPropertyOp8
 70
     1
102
RTVSPropertyOp9
 70
     1
102
RTVSPropertyOp10
 70
     1
102
RTVSPropertyOp11
 70
     1
102
RTVSPropertyOp12
 70
     1
102
RTVSPropertyOp13
 70
     1
102
RTVSPropertyOp14
 70
     1
102
RTVSPropertyOp15
 70
     1
102
RTVSPropertyOp16
 70
     1
102
RTVSPropertyOp17
 70
     1
102
RTVSPropertyOp18
 70
     1
102
RTVSPropertyOp19
 70
     1
102
RTVSPropertyOp20
 70
     1
102
RTVSPropertyOp21
 70
     1
102
RTVSPropertyOp22
 70
     1
102
RTVSPropertyOp23
 70
     1
102
RTVSPropertyOp24
 70
     1
102
RTVSPropertyOp25
 70
     1
102
RTVSPropertyOp26
 70
     1
102
RTVSPropertyOp27
 70
     1
102
RTVSPropertyOp28
 70
     1
102
RTVSPropertyOp29
 70
     1
102
RTVSPropertyOp30
 70
     1
102
RTVSPropertyOp31
 70
     1
102
RTVSPropertyOp32
 70
     1
  0
XRECORD
  5
28D1
102
{ACAD_REACTORS
330
28D0
102
}
330
28D0
100
AcDbXrecord
280
     1
102
RTVSPropertyOp0
 70
     1
102
RTVSPropertyOp1
 70
     1
102
RTVSPropertyOp2
 70
     1
102
RTVSPropertyOp3
 70
     1
102
RTVSPropertyOp4
 70
     1
102
RTVSPropertyOp5
 70
     1
102
RTVSPropertyOp6
 70
     1
102
RTVSPropertyOp7
 70
     1
102
RTVSPropertyOp8
 70
     1
102
RTVSPropertyOp9
 70
     1
102
RTVSPropertyOp10
 70
     1
102
RTVSPropertyOp11
 70
     1
102
RTVSPropertyOp12
 70
     1
102
RTVSPropertyOp13
 70
     1
102
RTVSPropertyOp14
 70
     1
102
RTVSPropertyOp15
 70
     1
102
RTVSPropertyOp16
 70
     1
102
RTVSPropertyOp17
 70
     1
102
RTVSPropertyOp18
 70
     1
102
RTVSPropertyOp19
 70
     1
102
RTVSPropertyOp20
 70
     1
102
RTVSPropertyOp21
 70
     1
102
RTVSPropertyOp22
 70
     1
102
RTVSPropertyOp23
 70
     1
102
RTVSPropertyOp24
 70
     1
102
RTVSPropertyOp25
 70
     1
102
RTVSPropertyOp26
 70
     1
102
RTVSPropertyOp27
 70
     1
102
RTVSPropertyOp28
 70
     1
102
RTVSPropertyOp29
 70
     1
102
RTVSPropertyOp30
 70
     1
102
RTVSPropertyOp31
 70
     1
102
RTVSPropertyOp32
 70
     1
  0
XRECORD
  5
28D9
102
{ACAD_REACTORS
330
28D8
102
}
330
28D8
100
AcDbXrecord
280
     1
102
RTVSPropertyOp0
 70
     1
102
RTVSPropertyOp1
 70
     1
102
RTVSPropertyOp2
 70
     1
102
RTVSPropertyOp3
 70
     1
102
RTVSPropertyOp4
 70
     1
102
RTVSPropertyOp5
 70
     1
102
RTVSPropertyOp6
 70
     1
102
RTVSPropertyOp7
 70
     1
102
RTVSPropertyOp8
 70
     1
102
RTVSPropertyOp9
 70
     1
102
RTVSPropertyOp10
 70
     1
102
RTVSPropertyOp11
 70
     1
102
RTVSPropertyOp12
 70
     1
102
RTVSPropertyOp13
 70
     1
102
RTVSPropertyOp14
 70
     1
102
RTVSPropertyOp15
 70
     1
102
RTVSPropertyOp16
 70
     1
102
RTVSPropertyOp17
 70
     1
102
RTVSPropertyOp18
 70
     1
102
RTVSPropertyOp19
 70
     1
102
RTVSPropertyOp20
 70
     1
102
RTVSPropertyOp21
 70
     1
102
RTVSPropertyOp22
 70
     1
102
RTVSPropertyOp23
 70
     1
102
RTVSPropertyOp24
 70
     1
102
RTVSPropertyOp25
 70
     1
102
RTVSPropertyOp26
 70
     1
102
RTVSPropertyOp27
 70
     1
102
RTVSPropertyOp28
 70
     1
102
RTVSPropertyOp29
 70
     1
102
RTVSPropertyOp30
 70
     1
102
RTVSPropertyOp31
 70
     1
102
RTVSPropertyOp32
 70
     1
  0
XRECORD
  5
28F5
102
{ACAD_REACTORS
330
28F4
102
}
330
28F4
100
AcDbXrecord
280
     1
102
RTVSPropertyOp0
 70
     0
102
RTVSPropertyOp1
 70
     0
102
RTVSPropertyOp2
 70
     0
102
RTVSPropertyOp3
 70
     0
102
RTVSPropertyOp4
 70
     0
102
RTVSPropertyOp5
 70
     0
102
RTVSPropertyOp6
 70
     0
102
RTVSPropertyOp7
 70
     0
102
RTVSPropertyOp8
 70
     0
102
RTVSPropertyOp9
 70
     0
102
RTVSPropertyOp10
 70
     0
102
RTVSPropertyOp11
 70
     0
102
RTVSPropertyOp12
 70
     0
102
RTVSPropertyOp13
 70
     0
102
RTVSPropertyOp14
 70
     2
102
RTVSPropertyOp15
 70
     0
102
RTVSPropertyOp16
 70
     0
102
RTVSPropertyOp17
 70
     0
102
RTVSPropertyOp18
 70
     0
102
RTVSPropertyOp19
 70
     0
102
RTVSPropertyOp20
 70
     0
102
RTVSPropertyOp21
 70
     0
102
RTVSPropertyOp22
 70
     0
102
RTVSPropertyOp23
 70
     0
102
RTVSPropertyOp24
 70
     0
102
RTVSPropertyOp25
 70
     0
102
RTVSPropertyOp26
 70
     0
102
RTVSPropertyOp27
 70
     0
102
RTVSPropertyOp28
 70
     0
102
RTVSPropertyOp29
 70
     0
102
RTVSPropertyOp30
 70
     0
102
RTVSPropertyOp31
 70
     0
102
RTVSPropertyOp32
 70
     0
  0
XRECORD
  5
28E5
102
{ACAD_REACTORS
330
28E4
102
}
330
28E4
100
AcDbXrecord
280
     1
102
RTVSPropertyOp0
 70
     1
102
RTVSPropertyOp1
 70
     1
102
RTVSPropertyOp2
 70
     1
102
RTVSPropertyOp3
 70
     1
102
RTVSPropertyOp4
 70
     1
102
RTVSPropertyOp5
 70
     1
102
RTVSPropertyOp6
 70
     1
102
RTVSPropertyOp7
 70
     1
102
RTVSPropertyOp8
 70
     1
102
RTVSPropertyOp9
 70
     1
102
RTVSPropertyOp10
 70
     1
102
RTVSPropertyOp11
 70
     1
102
RTVSPropertyOp12
 70
     1
102
RTVSPropertyOp13
 70
     1
102
RTVSPropertyOp14
 70
     1
102
RTVSPropertyOp15
 70
     1
102
RTVSPropertyOp16
 70
     1
102
RTVSPropertyOp17
 70
     1
102
RTVSPropertyOp18
 70
     1
102
RTVSPropertyOp19
 70
     1
102
RTVSPropertyOp20
 70
     1
102
RTVSPropertyOp21
 70
     1
102
RTVSPropertyOp22
 70
     1
102
RTVSPropertyOp23
 70
     1
102
RTVSPropertyOp24
 70
     1
102
RTVSPropertyOp25
 70
     1
102
RTVSPropertyOp26
 70
     1
102
RTVSPropertyOp27
 70
     1
102
RTVSPropertyOp28
 70
     1
102
RTVSPropertyOp29
 70
     1
102
RTVSPropertyOp30
 70
     1
102
RTVSPropertyOp31
 70
     1
102
RTVSPropertyOp32
 70
     1
  0
XRECORD
  5
28F7
102
{ACAD_REACTORS
330
28F6
102
}
330
28F6
100
AcDbXrecord
280
     1
102
RTVSPropertyOp0
 70
     0
102
RTVSPropertyOp1
 70
     0
102
RTVSPropertyOp2
 70
     0
102
RTVSPropertyOp3
 70
     0
102
RTVSPropertyOp4
 70
     0
102
RTVSPropertyOp5
 70
     0
102
RTVSPropertyOp6
 70
     0
102
RTVSPropertyOp7
 70
     0
102
RTVSPropertyOp8
 70
     0
102
RTVSPropertyOp9
 70
     0
102
RTVSPropertyOp10
 70
     0
102
RTVSPropertyOp11
 70
     0
102
RTVSPropertyOp12
 70
     0
102
RTVSPropertyOp13
 70
     0
102
RTVSPropertyOp14
 70
     2
102
RTVSPropertyOp15
 70
     0
102
RTVSPropertyOp16
 70
     0
102
RTVSPropertyOp17
 70
     0
102
RTVSPropertyOp18
 70
     0
102
RTVSPropertyOp19
 70
     0
102
RTVSPropertyOp20
 70
     0
102
RTVSPropertyOp21
 70
     0
102
RTVSPropertyOp22
 70
     0
102
RTVSPropertyOp23
 70
     0
102
RTVSPropertyOp24
 70
     0
102
RTVSPropertyOp25
 70
     0
102
RTVSPropertyOp26
 70
     0
102
RTVSPropertyOp27
 70
     0
102
RTVSPropertyOp28
 70
     0
102
RTVSPropertyOp29
 70
     0
102
RTVSPropertyOp30
 70
     0
102
RTVSPropertyOp31
 70
     0
102
RTVSPropertyOp32
 70
     0
  0
XRECORD
  5
28DD
102
{ACAD_REACTORS
330
28DC
102
}
330
28DC
100
AcDbXrecord
280
     1
102
RTVSPropertyOp0
 70
     1
102
RTVSPropertyOp1
 70
     1
102
RTVSPropertyOp2
 70
     1
102
RTVSPropertyOp3
 70
     1
102
RTVSPropertyOp4
 70
     1
102
RTVSPropertyOp5
 70
     1
102
RTVSPropertyOp6
 70
     1
102
RTVSPropertyOp7
 70
     1
102
RTVSPropertyOp8
 70
     1
102
RTVSPropertyOp9
 70
     1
102
RTVSPropertyOp10
 70
     1
102
RTVSPropertyOp11
 70
     1
102
RTVSPropertyOp12
 70
     1
102
RTVSPropertyOp13
 70
     1
102
RTVSPropertyOp14
 70
     1
102
RTVSPropertyOp15
 70
     1
102
RTVSPropertyOp16
 70
     1
102
RTVSPropertyOp17
 70
     1
102
RTVSPropertyOp18
 70
     1
102
RTVSPropertyOp19
 70
     1
102
RTVSPropertyOp20
 70
     1
102
RTVSPropertyOp21
 70
     1
102
RTVSPropertyOp22
 70
     1
102
RTVSPropertyOp23
 70
     1
102
RTVSPropertyOp24
 70
     1
102
RTVSPropertyOp25
 70
     1
102
RTVSPropertyOp26
 70
     1
102
RTVSPropertyOp27
 70
     1
102
RTVSPropertyOp28
 70
     1
102
RTVSPropertyOp29
 70
     1
102
RTVSPropertyOp30
 70
     1
102
RTVSPropertyOp31
 70
     1
102
RTVSPropertyOp32
 70
     1
  0
XRECORD
  5
28F3
102
{ACAD_REACTORS
330
28F2
102
}
330
28F2
100
AcDbXrecord
280
     1
102
RTVSPropertyOp0
 70
     1
102
RTVSPropertyOp1
 70
     1
102
RTVSPropertyOp2
 70
     1
102
RTVSPropertyOp3
 70
     1
102
RTVSPropertyOp4
 70
     1
102
RTVSPropertyOp5
 70
     1
102
RTVSPropertyOp6
 70
     1
102
RTVSPropertyOp7
 70
     1
102
RTVSPropertyOp8
 70
     1
102
RTVSPropertyOp9
 70
     1
102
RTVSPropertyOp10
 70
     1
102
RTVSPropertyOp11
 70
     1
102
RTVSPropertyOp12
 70
     1
102
RTVSPropertyOp13
 70
     1
102
RTVSPropertyOp14
 70
     1
102
RTVSPropertyOp15
 70
     1
102
RTVSPropertyOp16
 70
     1
102
RTVSPropertyOp17
 70
     1
102
RTVSPropertyOp18
 70
     1
102
RTVSPropertyOp19
 70
     1
102
RTVSPropertyOp20
 70
     1
102
RTVSPropertyOp21
 70
     1
102
RTVSPropertyOp22
 70
     1
102
RTVSPropertyOp23
 70
     1
102
RTVSPropertyOp24
 70
     1
102
RTVSPropertyOp25
 70
     1
102
RTVSPropertyOp26
 70
     1
102
RTVSPropertyOp27
 70
     1
102
RTVSPropertyOp28
 70
     1
102
RTVSPropertyOp29
 70
     1
102
RTVSPropertyOp30
 70
     1
102
RTVSPropertyOp31
 70
     1
102
RTVSPropertyOp32
 70
     1
  0
XRECORD
  5
28F1
102
{ACAD_REACTORS
330
28F0
102
}
330
28F0
100
AcDbXrecord
280
     1
102
RTVSPropertyOp0
 70
     1
102
RTVSPropertyOp1
 70
     1
102
RTVSPropertyOp2
 70
     1
102
RTVSPropertyOp3
 70
     1
102
RTVSPropertyOp4
 70
     1
102
RTVSPropertyOp5
 70
     1
102
RTVSPropertyOp6
 70
     1
102
RTVSPropertyOp7
 70
     1
102
RTVSPropertyOp8
 70
     1
102
RTVSPropertyOp9
 70
     1
102
RTVSPropertyOp10
 70
     1
102
RTVSPropertyOp11
 70
     1
102
RTVSPropertyOp12
 70
     1
102
RTVSPropertyOp13
 70
     1
102
RTVSPropertyOp14
 70
     1
102
RTVSPropertyOp15
 70
     1
102
RTVSPropertyOp16
 70
     1
102
RTVSPropertyOp17
 70
     1
102
RTVSPropertyOp18
 70
     1
102
RTVSPropertyOp19
 70
     1
102
RTVSPropertyOp20
 70
     1
102
RTVSPropertyOp21
 70
     1
102
RTVSPropertyOp22
 70
     1
102
RTVSPropertyOp23
 70
     1
102
RTVSPropertyOp24
 70
     1
102
RTVSPropertyOp25
 70
     1
102
RTVSPropertyOp26
 70
     1
102
RTVSPropertyOp27
 70
     1
102
RTVSPropertyOp28
 70
     1
102
RTVSPropertyOp29
 70
     1
102
RTVSPropertyOp30
 70
     1
102
RTVSPropertyOp31
 70
     1
102
RTVSPropertyOp32
 70
     1
  0
XRECORD
  5
28EB
102
{ACAD_REACTORS
330
28EA
102
}
330
28EA
100
AcDbXrecord
280
     1
102
RTVSPropertyOp0
 70
     1
102
RTVSPropertyOp1
 70
     1
102
RTVSPropertyOp2
 70
     1
102
RTVSPropertyOp3
 70
     1
102
RTVSPropertyOp4
 70
     1
102
RTVSPropertyOp5
 70
     1
102
RTVSPropertyOp6
 70
     1
102
RTVSPropertyOp7
 70
     1
102
RTVSPropertyOp8
 70
     1
102
RTVSPropertyOp9
 70
     1
102
RTVSPropertyOp10
 70
     1
102
RTVSPropertyOp11
 70
     1
102
RTVSPropertyOp12
 70
     1
102
RTVSPropertyOp13
 70
     1
102
RTVSPropertyOp14
 70
     1
102
RTVSPropertyOp15
 70
     1
102
RTVSPropertyOp16
 70
     1
102
RTVSPropertyOp17
 70
     1
102
RTVSPropertyOp18
 70
     1
102
RTVSPropertyOp19
 70
     1
102
RTVSPropertyOp20
 70
     1
102
RTVSPropertyOp21
 70
     1
102
RTVSPropertyOp22
 70
     1
102
RTVSPropertyOp23
 70
     1
102
RTVSPropertyOp24
 70
     1
102
RTVSPropertyOp25
 70
     1
102
RTVSPropertyOp26
 70
     1
102
RTVSPropertyOp27
 70
     1
102
RTVSPropertyOp28
 70
     1
102
RTVSPropertyOp29
 70
     1
102
RTVSPropertyOp30
 70
     1
102
RTVSPropertyOp31
 70
     1
102
RTVSPropertyOp32
 70
     1
  0
XRECORD
  5
28ED
102
{ACAD_REACTORS
330
28EC
102
}
330
28EC
100
AcDbXrecord
280
     1
102
RTVSPropertyOp0
 70
     1
102
RTVSPropertyOp1
 70
     1
102
RTVSPropertyOp2
 70
     1
102
RTVSPropertyOp3
 70
     1
102
RTVSPropertyOp4
 70
     1
102
RTVSPropertyOp5
 70
     1
102
RTVSPropertyOp6
 70
     1
102
RTVSPropertyOp7
 70
     1
102
RTVSPropertyOp8
 70
     1
102
RTVSPropertyOp9
 70
     1
102
RTVSPropertyOp10
 70
     1
102
RTVSPropertyOp11
 70
     1
102
RTVSPropertyOp12
 70
     1
102
RTVSPropertyOp13
 70
     1
102
RTVSPropertyOp14
 70
     1
102
RTVSPropertyOp15
 70
     1
102
RTVSPropertyOp16
 70
     1
102
RTVSPropertyOp17
 70
     1
102
RTVSPropertyOp18
 70
     1
102
RTVSPropertyOp19
 70
     1
102
RTVSPropertyOp20
 70
     1
102
RTVSPropertyOp21
 70
     1
102
RTVSPropertyOp22
 70
     1
102
RTVSPropertyOp23
 70
     1
102
RTVSPropertyOp24
 70
     1
102
RTVSPropertyOp25
 70
     1
102
RTVSPropertyOp26
 70
     1
102
RTVSPropertyOp27
 70
     1
102
RTVSPropertyOp28
 70
     1
102
RTVSPropertyOp29
 70
     1
102
RTVSPropertyOp30
 70
     1
102
RTVSPropertyOp31
 70
     1
102
RTVSPropertyOp32
 70
     1
  0
XRECORD
  5
28E3
102
{ACAD_REACTORS
330
28E2
102
}
330
28E2
100
AcDbXrecord
280
     1
102
RTVSPropertyOp0
 70
     1
102
RTVSPropertyOp1
 70
     1
102
RTVSPropertyOp2
 70
     1
102
RTVSPropertyOp3
 70
     1
102
RTVSPropertyOp4
 70
     1
102
RTVSPropertyOp5
 70
     1
102
RTVSPropertyOp6
 70
     1
102
RTVSPropertyOp7
 70
     1
102
RTVSPropertyOp8
 70
     1
102
RTVSPropertyOp9
 70
     1
102
RTVSPropertyOp10
 70
     1
102
RTVSPropertyOp11
 70
     1
102
RTVSPropertyOp12
 70
     1
102
RTVSPropertyOp13
 70
     1
102
RTVSPropertyOp14
 70
     1
102
RTVSPropertyOp15
 70
     1
102
RTVSPropertyOp16
 70
     1
102
RTVSPropertyOp17
 70
     1
102
RTVSPropertyOp18
 70
     1
102
RTVSPropertyOp19
 70
     1
102
RTVSPropertyOp20
 70
     1
102
RTVSPropertyOp21
 70
     1
102
RTVSPropertyOp22
 70
     1
102
RTVSPropertyOp23
 70
     1
102
RTVSPropertyOp24
 70
     1
102
RTVSPropertyOp25
 70
     1
102
RTVSPropertyOp26
 70
     1
102
RTVSPropertyOp27
 70
     1
102
RTVSPropertyOp28
 70
     1
102
RTVSPropertyOp29
 70
     1
102
RTVSPropertyOp30
 70
     1
102
RTVSPropertyOp31
 70
     1
102
RTVSPropertyOp32
 70
     1
  0
XRECORD
  5
28D7
102
{ACAD_REACTORS
330
28D6
102
}
330
28D6
100
AcDbXrecord
280
     1
102
RTVSPropertyOp0
 70
     1
102
RTVSPropertyOp1
 70
     1
102
RTVSPropertyOp2
 70
     1
102
RTVSPropertyOp3
 70
     1
102
RTVSPropertyOp4
 70
     1
102
RTVSPropertyOp5
 70
     1
102
RTVSPropertyOp6
 70
     1
102
RTVSPropertyOp7
 70
     1
102
RTVSPropertyOp8
 70
     1
102
RTVSPropertyOp9
 70
     1
102
RTVSPropertyOp10
 70
     1
102
RTVSPropertyOp11
 70
     1
102
RTVSPropertyOp12
 70
     1
102
RTVSPropertyOp13
 70
     1
102
RTVSPropertyOp14
 70
     1
102
RTVSPropertyOp15
 70
     1
102
RTVSPropertyOp16
 70
     1
102
RTVSPropertyOp17
 70
     1
102
RTVSPropertyOp18
 70
     1
102
RTVSPropertyOp19
 70
     1
102
RTVSPropertyOp20
 70
     1
102
RTVSPropertyOp21
 70
     1
102
RTVSPropertyOp22
 70
     1
102
RTVSPropertyOp23
 70
     1
102
RTVSPropertyOp24
 70
     1
102
RTVSPropertyOp25
 70
     1
102
RTVSPropertyOp26
 70
     1
102
RTVSPropertyOp27
 70
     1
102
RTVSPropertyOp28
 70
     1
102
RTVSPropertyOp29
 70
     1
102
RTVSPropertyOp30
 70
     1
102
RTVSPropertyOp31
 70
     1
102
RTVSPropertyOp32
 70
     1
  0
XRECORD
  5
28EF
102
{ACAD_REACTORS
330
28EE
102
}
330
28EE
100
AcDbXrecord
280
     1
102
RTVSPropertyOp0
 70
     1
102
RTVSPropertyOp1
 70
     1
102
RTVSPropertyOp2
 70
     1
102
RTVSPropertyOp3
 70
     1
102
RTVSPropertyOp4
 70
     1
102
RTVSPropertyOp5
 70
     1
102
RTVSPropertyOp6
 70
     1
102
RTVSPropertyOp7
 70
     1
102
RTVSPropertyOp8
 70
     1
102
RTVSPropertyOp9
 70
     1
102
RTVSPropertyOp10
 70
     1
102
RTVSPropertyOp11
 70
     1
102
RTVSPropertyOp12
 70
     1
102
RTVSPropertyOp13
 70
     1
102
RTVSPropertyOp14
 70
     1
102
RTVSPropertyOp15
 70
     1
102
RTVSPropertyOp16
 70
     1
102
RTVSPropertyOp17
 70
     1
102
RTVSPropertyOp18
 70
     1
102
RTVSPropertyOp19
 70
     1
102
RTVSPropertyOp20
 70
     1
102
RTVSPropertyOp21
 70
     1
102
RTVSPropertyOp22
 70
     1
102
RTVSPropertyOp23
 70
     1
102
RTVSPropertyOp24
 70
     1
102
RTVSPropertyOp25
 70
     1
102
RTVSPropertyOp26
 70
     1
102
RTVSPropertyOp27
 70
     1
102
RTVSPropertyOp28
 70
     1
102
RTVSPropertyOp29
 70
     1
102
RTVSPropertyOp30
 70
     1
102
RTVSPropertyOp31
 70
     1
102
RTVSPropertyOp32
 70
     1
  0
ENDSEC
  0
EOF
